img image001 image001 image001 image001 image001 image001 image001 image001 image001 image001 image001 image001 image001 image001 image001

Planets Sun Sun Sun
Статистика раздачи
Автор: PriZraK | Размер: 17.86 ГБ | Добавлен: 15 фев 2014
Раздают: 0    Качают: 2
Скачать торрент
Скачать торрент
Описание торрента

СообщениеДобавлено: 15 фев 2014 

XXII Зимние Олимпийские игры. Фигурное катание. Командные соревнования





Вид спорта: фигурное катание
Дата/Год выпуска: 06.02.2014
Автор рипа/записи: AldarEl

Язык комментариев: русский (Александр Васильев, Олег Васильев)

Описание: Командные соревнования по фигурному катанию.
Арена Айсберг, Сочи, 2014

Доп. информация: Запись с канала СПОРТ 1 HD (НТВ+). Запись не пережата, в контейнере mkv записаны оригинальные потоки.






Качество: HDTV 1080i
Формат видео: MKV
Видео: mpeg4 AVC, 1920x1080, 50.00 fps, 16:9, YUV, VBR ~13 Mbps
Аудио: mpeg2, stereo, 48 kHz, 192 kbps, rus




"MI"
General
Unique ID : 252251018307790995959215223717223862225 (0xBDC5C76A52C38DF69E1B334481DA0FD1)
Complete name : T:VideoFigSkating2014 Olympic Winter Games2014.OlympicWinterGames.Team.Men.ShortProgram.mkv
Format : Matroska
Format version : Version 2
File size : 8.17 GiB
Duration : 1h 30mn
Overall bit rate : 12.9 Mbps
Movie name : 2014 Olympic WG Team Men Short Program
Encoded date : UTC 2014-02-07 05:47:21
Writing application : mkvmerge v6.5.0 ('Isn't she lovely') built on Oct 20 2013 12:50:05
Writing library : libebml v1.3.0 + libmatroska v1.4.1
Original source form : TV
DATE_BROADCASTED : 2014-02-06 21:20:00
TVCHANNEL : РЎРїРѕСЂС‚ 1 HD

Video
ID : 1
Format : AVC
Format/Info : Advanced Video Codec
Format profile : High@L4.0
Format settings, CABAC : Yes
Format settings, ReFrames : 3 frames
Codec ID : V_MPEG4/ISO/AVC
Duration : 1h 30mn
Bit rate : 12.4 Mbps
Width : 1 920 pixels
Height : 1 088 pixels
Original height : 1 080 pixels
Display aspect ratio : 16:9
Original display aspect ratio : 16:9
Frame rate mode : Constant
Frame rate : 25.000 fps
Standard : Component
Color space : YUV
Chroma subsampling : 4:2:0
Bit depth : 8 bits
Scan type : Interlaced
Scan order : Top Field First
Bits/(Pixel*Frame) : 0.238
Stream size : 7.89 GiB (97%)
Language : English
Default : Yes
Forced : No
Color primaries : BT.709
Transfer characteristics : BT.709
Matrix coefficients : BT.709

Audio
ID : 2
Format : MPEG Audio
Format version : Version 1
Format profile : Layer 2
Codec ID : A_MPEG/L2
Codec ID/Hint : MP2
Duration : 1h 30mn
Bit rate mode : Constant
Bit rate : 192 Kbps
Channel(s) : 2 channels
Sampling rate : 48.0 KHz
Compression mode : Lossy
Delay relative to video : 16ms
Stream size : 125 MiB (1%)
Language : Russian
Default : Yes
Forced : No
General
Unique ID : 240460843923520997155544425297998271084 (0xB4E712F01F9C14BEAF3D57EF2C98526C)
Complete name : T:VideoFigSkating2014 Olympic Winter Games2014.OlympicWinterGames.Team.Pairs.ShortProgram.mkv
Format : Matroska
Format version : Version 2
File size : 9.69 GiB
Duration : 1h 47mn
Overall bit rate : 12.9 Mbps
Movie name : 2014 Olympic Winter Games Team Pairs Short Program
Encoded date : UTC 2014-02-07 06:14:39
Writing application : mkvmerge v6.5.0 ('Isn't she lovely') built on Oct 20 2013 12:50:05
Writing library : libebml v1.3.0 + libmatroska v1.4.1
Original source form : TV
DATE_BROADCASTED : 2014-02-06 23:05:00
TVCHANNEL : РЎРїРѕСЂС‚ 1 HD

Video
ID : 1
Format : AVC
Format/Info : Advanced Video Codec
Format profile : High@L4.0
Format settings, CABAC : Yes
Format settings, ReFrames : 3 frames
Codec ID : V_MPEG4/ISO/AVC
Duration : 1h 47mn
Bit rate : 12.4 Mbps
Width : 1 920 pixels
Height : 1 088 pixels
Original height : 1 080 pixels
Display aspect ratio : 16:9
Original display aspect ratio : 16:9
Frame rate mode : Constant
Frame rate : 25.000 fps
Standard : Component
Color space : YUV
Chroma subsampling : 4:2:0
Bit depth : 8 bits
Scan type : Interlaced
Scan order : Top Field First
Bits/(Pixel*Frame) : 0.238
Stream size : 9.35 GiB (97%)
Language : English
Default : Yes
Forced : No
Color primaries : BT.709
Transfer characteristics : BT.709
Matrix coefficients : BT.709

Audio
ID : 2
Format : MPEG Audio
Format version : Version 1
Format profile : Layer 2
Codec ID : A_MPEG/L2
Codec ID/Hint : MP2
Duration : 1h 47mn
Bit rate mode : Constant
Bit rate : 192 Kbps
Channel(s) : 2 channels
Sampling rate : 48.0 KHz
Compression mode : Lossy
Stream size : 148 MiB (1%)
Language : Russian
Default : Yes
Forced : No


"Составы команд"
DALEMAN Gabrielle
OSMOND Kaetlyn
CHAN Patrick
FIRUS Liam
REYNOLDS Kevin
DUHAMEL Meagan / RADFORD Eric
LAWRENCE Paige / SWIEGERS Rudi
MOORE-TOWERS K / MOSCOVITCH D
PAUL Alexandra / ISLAM Mitchell
VIRTUE Tessa / MOIR Scott
WEAVER Kaitlyn / POJE Andrew
LI Zijun
ZHANG Kexin
YAN Han
PANG Qing / TONG Jian
PENG Cheng / ZHANG Hao
HUANG Xintong / ZHENG Xun
MEITE Mae Berenice
AMODIO Florent
JOUBERT Brian
JAMES Vanessa / CIPRES Morgan
CARRON Pernelle / JONES Lloyd
PECHALAT Nathalie / BOURZAT Fabian
McCORKELL Jenna
PARR Matthew
KEMP Stacey / KING David
COOMES Penny / BUCKLAND Nicholas
WEINZIERL Nathalie
LIEBERS Peter
SAVCHENKO Aliona / SZOLKOWY Robin
WENDE Maylin / WENDE Daniel
KOLBE Tanja / CARUSO Stefano
ZHIGANSHINA Nelli / GAZSI Alexander
KOSTNER Carolina
MARCHEI Valentina
PARKINSON Paul Bonifacio
BERTON Stefania / HOTAREK Ondrej
DELLA MONICA N / GUARISE M
CAPPELLINI Anna / LANOTTE Luca
GUIGNARD Charlene / FABBRI Marco
ASADA Mao
MURAKAMI Kanako
SUZUKI Akiko
HANYU Yuzuru
MACHIDA Tatsuki
TAKAHASHI Daisuke
TAKAHASHI Narumi / KIHARA Ryuichi
REED Cathy / REED Chris
LIPNITSKAYA Yulia
SOTNIKOVA Adelina
PLYUSHCHENKO Evgeny
BAZAROVA Vera / LARIONOV Yuri
STOLBOVA Ksenia / KLIMOV Fedor
VOLOSOZHAR Tatiana / TRANKOV Maxim x
BOBROVA Ekaterina / SOLOVIEV Dmitri
ILINYKH Elena / KATSALAPOV Nikita
SINITSINA V / ZHIGANSHIN R
POPOVA Natalia
GODOROZHA Yakov
LAVRENTIEVA Julia / RUDYK Yuri
HEEKIN-CANEDY Siobhan / DUN Dmitri
EDMUNDS Polina
GOLD Gracie
WAGNER Ashley
ABBOTT Jeremy
BROWN Jason
CASTELLI Marissa / SHNAPIR Simon
ZHANG Felicia / BARTHOLOMAY Nathan
CHOCK Madison / BATES Evan
DAVIS Meryl / WHITE Charlie
SHIBUTANI Maia / SHIBUTANI Alex


"Продолжительность"
01:30:00 + 00:00:00
00:00:00 + 00:00:00
01:47:00 + 00:00:00
00:00:00 + 00:00:00




"Счёт/Итог"




Внимание! Раздача ведётся путём добавления новых файлов; при каждом добавлении создётся новый торрент. Чтобы начать докачку новых видео, пользователям необходимо сделать следующее:
(1) остановить скачивание,
(2) удалить старый торрент у себя из клиента (старые файлы удалять не надо),
(3) скачать новый торрент и запустить его у себя в клиенте вместо старого, при этом указать клиенту путь в старую папку, куда и должно происходить скачивание новых файлов.
Ваш клиент при этом должен произвести хеширование (проверку) старой папки (если не производит сам - помогите ему сделать это), и будет докачивать только те файлы, которых у вас ещё нет. Старые файлы при этом не удаляются, а продолжают раздаваться!
Eсли вы уже удалили старые файлы, то предотвратить повторную закачку старых можно, отжав галочку в соответствующих местах при запуске нового торрента.



   Похожие торренты   Торрент   Размер 
В этой теме нет новых непрочитанных сообщений. XXII Зимние Олимпийские игры. Фигурное катание. Командные соревнования. Короткий танец [Спортхит] (2014) DVB

128 | 15

3.19 ГБ

В этой теме нет новых непрочитанных сообщений. XXII Зимние Олимпийские игры. Фигурное катание. КС. Женщины. Короткая программа [Спорт 1 HD] (2014) HDTV 1080i

306 | 35

3.79 ГБ

В этой теме нет новых непрочитанных сообщений. XXII Зимние Олимпийские игры. Фигурное катание. КС. Пары. Произвольная программа [Спорт 1 HD] (2014) HDTV 1080i

206 | 3

2.62 ГБ

В этой теме нет новых непрочитанных сообщений. XXII Зимние Олимпийские игры. Фигурное катание. Пары. Короткая программа [Спорт 1 HD] [11.02] (2014) HDTV 1080i

36 | 11

10.81 ГБ

В этой теме нет новых непрочитанных сообщений. XXII Зимние Олимпийские игры. Фигурное катание. Пары. Короткая программа [Спорт 1 HD] [11.02] (2014) HDTV 1080i

102 | 19

5.37 ГБ

В этой теме нет новых непрочитанных сообщений. XXII Зимние Олимпийские игры. Фигурное катание. Мужчины. Все выступления [Спорт 1 HD, Россия HD] [13-14.02] (2014) HDTV 1080i | 50 fps

12 | 42

35.38 ГБ

В этой теме нет новых непрочитанных сообщений. XXII Зимние Олимпийские игры. Фигурное катание. КП. Женщины. Произвольная программа [Спорт 1 HD] [09.02] (2014) HDTV 1080i

401 | 23

2.23 ГБ




Вы не можете начинать темы
Вы не можете отвечать на сообщения
Вы не можете редактировать свои сообщения
Вы не можете удалять свои сообщения
Вы не можете добавлять вложения

Перейти:  
Для Мосгорсуда, Роскомнадзора и рекламодателей: mosgorsud-torrent[собачка]yandex.ru
 Вход
ppkBB3cker v.2 © 2008-2014 @ PPK
[ Time : 0.050s | 15 Queries | GZIP : Off ]

Торрент трекер RUTOR.IN, Не можете зайти на rutor.org? Какой новый адрес рутор? Какое зеркало рутор? Не работает rutor.org и зеркала? Тогда наш торрент специально для вас. Rutor.in неофициальное зеркало rutor. В случае если у Вас заблокирован rutor или вдруг Вы не можете на него зайти, то Вы без труда сможете скачать бесплатно и без рекламы последние новинки кино, игр, сериалов и прочего у нас, на Rutor.in. Не нужно использовать прокси, чтобы зайти на рутор, достаточно воспользоваться нашим ресурсом. Все новые фильмы, игры, сериалы, книги и музыка за 2013 и 2014 годы через торрент бесплатно. Скачивайте фильмы в хорошем качестве, игры для пк, xbox, playstation без регистрации. У нас вы найдете новые Зарубежные сериалы и Русские сериалы 2013, 2014, 2015 годов. Оставайтесь с нами, качайте любимые фильмы, игры, сериалы, книги и музыку.
cron