img image001 image001 image001 image001 image001 image001 image001 image001 image001 image001 image001 image001 image001 image001 image001

Planets Sun Sun Sun
Статистика раздачи
Автор: PriZraK | Размер: 4.32 ГБ | Добавлен: 15 фев 2014
Раздают: 91    Качают: 27
Скачать торрент
Скачать торрент
Описание торрента

СообщениеДобавлено: 15 фев 2014 

XXII Зимние Олимпийские Игры 2014. Кёрлинг. Круговой этап. Сессия 2. Женщины. Россия - США

Вид спорта: Кёрлинг
Комментарий: Профессиональный
Язык комментариев: Русский (Владимир Гомельский)
Описание: XXII Зимние Олимпийские Игры 2014. Кёрлинг. Круговой этап. Сессия 2. Женщины. Россия - США. Первый Канал начал показ со второго энда.
Автор рипа: sanchez2011
Качество: DVB
Формат: MPEG-PS
Видео кодек: MPEG2
Аудио кодек: MP2
Видео: MPEG2 Video 720x576 (16:9) 25fps 4000kbps
Аудио: MPEG Audio 48000Hz stereo 192kbps

Все результаты соревнований

Продолжительность: 02:26:02


General
Complete name : E:Олимпиада 2014XXII Зимние Олимпийские Игры 2014. 11.02.2014 Кёрлинг. Круговой этап. Сессия 2. Женщины. Россия - США.mpg
Format : MPEG-PS
File size : 4.32 GiB
Duration : 2h 26mn
Overall bit rate mode : Variable
Overall bit rate : 4 236 Kbps

Video
ID : 224 (0xE0)
Format : MPEG Video
Format version : Version 2
Format profile : Main@Main
Format settings, BVOP : Yes
Format settings, Matrix : Custom
Format settings, GOP : Variable
Duration : 2h 26mn
Bit rate mode : Variable
Bit rate : 3 960 Kbps
Maximum bit rate : 15.0 Mbps
Width : 720 pixels
Height : 576 pixels
Display aspect ratio : 16:9
Frame rate : 25.000 fps
Standard : PAL
Color space : YUV
Chroma subsampling : 4:2:0
Bit depth : 8 bits
Scan type : Interlaced
Scan order : Top Field First
Compression mode : Lossy
Bits/(Pixel*Frame) : 0.382
Time code of first frame : 00:00:00:00
Time code source : Group of pictures header
Stream size : 4.04 GiB (93%)
Matrix coefficients : BT.601

Audio
ID : 192 (0xC0)
Format : MPEG Audio
Format version : Version 1
Format profile : Layer 2
Duration : 2h 26mn
Bit rate mode : Constant
Bit rate : 192 Kbps
Channel(s) : 2 channels
Sampling rate : 48.0 KHz
Compression mode : Lossy
Stream size : 201 MiB (5%)



   Похожие торренты   Торрент   Размер 
В этой теме нет новых непрочитанных сообщений. XXII Зимние Олимпийские игры. Кёрлинг. Круговой этап. 9-й тур. Женщины. Канада - Россия [Первый] [15.02] (2014) DVB

108 | 36

2.36 ГБ

В этой теме нет новых непрочитанных сообщений. XXII зимние Олимпийские игры. Кёрлинг. Круговой этап. Сессия 10. Женщины. Россия - Швеция [Первый] DVB[16.02] (2014)

13 | 40

1.83 ГБ

В этой теме нет новых непрочитанных сообщений. XXII Зимние Олимпийские игры. Кёрлинг. Круговой этап. 9-й тур. Женщины. Канада - Россия [Первый HD] [15.02] (2014) HDTV 1080i

27 | 11

7.35 ГБ

В этой теме нет новых непрочитанных сообщений. XXII Зимние Олимпийские игры. Керлинг. Женщины. Россия - Дания [Россия 2] [10.02] (2014) SATRip от MediaClub

206 | 8

2.26 ГБ

В этой теме нет новых непрочитанных сообщений. XXII Зимние Олимпийские игры. Керлинг. Женщины. Россия - США [Спорт 1 HD] [11.02] (2014) HDTV 1080i от MediaClub

42 | 7

6.63 ГБ

В этой теме нет новых непрочитанных сообщений. XXII зимние Олимпийские игры. Керлинг. Женщины. Матч за 3-е место. Великобритания - Швейцария [Россия 2] [20.02] (2014) DVB

28 | 8

1.96 ГБ

В этой теме нет новых непрочитанных сообщений. XXII Зимние Олимпийские игры. Кёрлинг. Круговой этап. Сессия 5. Женщины. Россия - Южная Корея [Россия 2, Спорт] [13.02] (2014) SATRip

19 | 3

1.66 ГБ




Вы не можете начинать темы
Вы не можете отвечать на сообщения
Вы не можете редактировать свои сообщения
Вы не можете удалять свои сообщения
Вы не можете добавлять вложения

Перейти:  
Для Мосгорсуда, Роскомнадзора и рекламодателей: mosgorsud-torrent[собачка]yandex.ru
 Вход
ppkBB3cker v.2 © 2008-2014 @ PPK
[ Time : 0.538s | 16 Queries | GZIP : Off ]

Торрент трекер RUTOR.IN, Не можете зайти на rutor.org? Какой новый адрес рутор? Какое зеркало рутор? Не работает rutor.org и зеркала? Тогда наш торрент специально для вас. Rutor.in неофициальное зеркало rutor. В случае если у Вас заблокирован rutor или вдруг Вы не можете на него зайти, то Вы без труда сможете скачать бесплатно и без рекламы последние новинки кино, игр, сериалов и прочего у нас, на Rutor.in. Не нужно использовать прокси, чтобы зайти на рутор, достаточно воспользоваться нашим ресурсом. Все новые фильмы, игры, сериалы, книги и музыка за 2013 и 2014 годы через торрент бесплатно. Скачивайте фильмы в хорошем качестве, игры для пк, xbox, playstation без регистрации. У нас вы найдете новые Зарубежные сериалы и Русские сериалы 2013, 2014, 2015 годов. Оставайтесь с нами, качайте любимые фильмы, игры, сериалы, книги и музыку.