img image001 image001 image001 image001 image001 image001 image001 image001 image001 image001 image001 image001 image001 image001 image001

Planets Sun Sun Sun
Статистика раздачи
Автор: PriZraK | Размер: 1.29 ГБ | Добавлен: 15 фев 2014
Раздают: 30    Качают: 5
Скачать торрент
Скачать торрент
Описание торрента

СообщениеДобавлено: 15 фев 2014 

XXII Зимние Олимпийские игры в Сочи. Фристайл. Слоупстайл. Женщины. Финал

Вид спорта: Фристайл
Комментарий: Профессиональный
Язык комментариев: Русский (Алексей Осин)
Описание: XXII Зимние Олимпийские игры в Сочи. Фристайл. Слоупстайл. Женщины. Финал
Автор рипа: sanchez2011
Качество: DVB
Формат: MPEG-TS
Видео кодек: AVC
Аудио кодек: MP2
Видео: MPEG4 Video (H264) 720x576 (4:3) 25fps 2600kbps
Аудио: MPEG Audio 48000Hz stereo 192kbps

Все результаты соревнований

Продолжительность: 01:02:58


General
ID : 1 (0x1)
Complete name : E:Олимпиада 2014XXII Зимние Олимпийские Игры 2014. 11.02.2014 Фристайл. Слоупстайл. Женщины. Финал.ts
Format : MPEG-TS
File size : 1.29 GiB
Duration : 1h 2mn
Overall bit rate mode : Variable
Overall bit rate : 2 923 Kbps

Video
ID : 1031 (0x407)
Menu ID : 1 (0x1)
Format : AVC
Format/Info : Advanced Video Codec
Format profile : Main@L3.0
Format settings, CABAC : Yes
Format settings, ReFrames : 3 frames
Format settings, GOP : M=4, N=28
Codec ID : 27
Duration : 1h 2mn
Bit rate : 2 584 Kbps
Width : 720 pixels
Height : 576 pixels
Display aspect ratio : 4:3
Frame rate : 25.000 fps
Standard : Component
Color space : YUV
Chroma subsampling : 4:2:0
Bit depth : 8 bits
Scan type : Interlaced
Scan order : Top Field First
Bits/(Pixel*Frame) : 0.249
Stream size : 1.14 GiB (88%)
Color primaries : BT.601 PAL
Transfer characteristics : BT.470 System B, BT.470 System G
Matrix coefficients : BT.601

Audio
ID : 1032 (0x408)
Menu ID : 1 (0x1)
Format : MPEG Audio
Format version : Version 1
Format profile : Layer 2
Codec ID : 3
Duration : 1h 2mn
Bit rate mode : Constant
Bit rate : 192 Kbps
Channel(s) : 2 channels
Sampling rate : 48.0 KHz
Compression mode : Lossy
Stream size : 86.5 MiB (7%)
Language : English



   Похожие торренты   Торрент   Размер 
В этой теме нет новых непрочитанных сообщений. XXII Зимние Олимпийские игры. Фристайл. Слоупстайл. Женщины. Квалификация [Россия 2] [11.02] (2014) DVB

11 | 8

2.24 ГБ

В этой теме нет новых непрочитанных сообщений. XXII Зимние Олимпийские игры. Фристайл. Слоупстайл. Мужчины. Квалификация [Спортхит] [13.02] (2014) DVB

686 | 14

1.64 ГБ

В этой теме нет новых непрочитанных сообщений. XXII Зимние Олимпийские игры. Сочи. Сноуборд. Слоупстайл. Женщины. Квалификация. 2 заезд [Россия 2] [06.02] (2014) SATRip от MediaClub

0 | 2

586.43 МБ

В этой теме нет новых непрочитанных сообщений. XXII Зимние Олимпийские игры. Сочи. Сноуборд. Слоупстайл. Женщины. Квалификация. 1 заезд [Россия 2] [06.02] (2014) SATRip от MediaClub

0 | 2

770.48 МБ

В этой теме нет новых непрочитанных сообщений. XXII Зимние Олимпийские игры. Сочи. Фристайл. Могул. Женщины. Квалификация [Россия 2] [06.02] (2014) SATRip от MediaClub

0 | 2

867.28 МБ

В этой теме нет новых непрочитанных сообщений. XXII Зимние Олимпийские игры. Фристайл. Слоупстайл. Мужчины. Финал [Россия 2] [13.02] (2014) IPTV

76 | 3

573.79 МБ

В этой теме нет новых непрочитанных сообщений. XXII Зимние Олимпийские игры. Фристайл. Слоупстайл. Женщины [Спорт 1 HD] [11.02] (2014) HDTV 1080i от MediaClub

38 | 222

3.48 ГБ




Вы не можете начинать темы
Вы не можете отвечать на сообщения
Вы не можете редактировать свои сообщения
Вы не можете удалять свои сообщения
Вы не можете добавлять вложения

Перейти:  
Для Мосгорсуда, Роскомнадзора и рекламодателей: mosgorsud-torrent[собачка]yandex.ru
 Вход
ppkBB3cker v.2 © 2008-2014 @ PPK
[ Time : 0.038s | 15 Queries | GZIP : Off ]

Торрент трекер RUTOR.IN, Не можете зайти на rutor.org? Какой новый адрес рутор? Какое зеркало рутор? Не работает rutor.org и зеркала? Тогда наш торрент специально для вас. Rutor.in неофициальное зеркало rutor. В случае если у Вас заблокирован rutor или вдруг Вы не можете на него зайти, то Вы без труда сможете скачать бесплатно и без рекламы последние новинки кино, игр, сериалов и прочего у нас, на Rutor.in. Не нужно использовать прокси, чтобы зайти на рутор, достаточно воспользоваться нашим ресурсом. Все новые фильмы, игры, сериалы, книги и музыка за 2013 и 2014 годы через торрент бесплатно. Скачивайте фильмы в хорошем качестве, игры для пк, xbox, playstation без регистрации. У нас вы найдете новые Зарубежные сериалы и Русские сериалы 2013, 2014, 2015 годов. Оставайтесь с нами, качайте любимые фильмы, игры, сериалы, книги и музыку.
cron