img image001 image001 image001 image001 image001 image001 image001 image001 image001 image001 image001 image001 image001 image001 image001

Planets Sun Sun Sun
Статистика раздачи
Автор: PriZraK | Размер: 2.83 ГБ | Добавлен: 15 фев 2014
Раздают: 9    Качают: 2
Скачать торрент
Скачать торрент
Описание торрента

СообщениеДобавлено: 15 фев 2014 

XXII Зимние Олимпийские Игры 2014. Санный спорт. Женщины. 4-я попытка

Вид спорта: Санный спорт
Комментарий: Профессиональный
Язык комментариев: Русский (Александр Ткачев)
Описание: XXII Зимние Олимпийские Игры 2014. Санный спорт. Женщины. 4-я попытка. Вторая часть видимо.

Автор рипа: sanchez2011

Качество: HDTV
Формат: MPEG-TS
Видео кодек: AVC
Аудио кодек: MP2
Видео: MPEG4 Video (H264) 1920x1080 10.8Mbps 25fps
Аудио: MPEG Audio 48000Hz stereo 224kbps

Все результаты соревнований

Продолжительность: 00:34:48


General
ID : 1 (0x1)
Complete name : E:Олимпиада 2014XXII Зимние Олимпийские Игры 2014. 11.02.2014 Санный спорт. Женщины. 4-я попытка.ts
Format : MPEG-TS
File size : 2.83 GiB
Duration : 34mn 48s
Overall bit rate mode : Variable
Overall bit rate : 11.6 Mbps

Video
ID : 1901 (0x76D)
Menu ID : 1 (0x1)
Format : AVC
Format/Info : Advanced Video Codec
Format profile : High@L4.0
Format settings, CABAC : Yes
Format settings, ReFrames : 3 frames
Format settings, GOP : M=4, N=32
Codec ID : 27
Duration : 34mn 48s
Bit rate : 10.8 Mbps
Width : 1 920 pixels
Height : 1 080 pixels
Display aspect ratio : 16:9
Frame rate : 25.000 fps
Standard : Component
Color space : YUV
Chroma subsampling : 4:2:0
Bit depth : 8 bits
Scan type : Interlaced
Scan order : Top Field First
Bits/(Pixel*Frame) : 0.209
Stream size : 2.63 GiB (93%)
Color primaries : BT.709
Transfer characteristics : BT.709
Matrix coefficients : BT.709

Audio
ID : 2901 (0xB55)
Menu ID : 1 (0x1)
Format : MPEG Audio
Format version : Version 1
Format profile : Layer 2
Codec ID : 3
Duration : 34mn 48s
Bit rate mode : Constant
Bit rate : 224 Kbps
Channel(s) : 2 channels
Sampling rate : 48.0 KHz
Compression mode : Lossy
Stream size : 55.8 MiB (2%)
Language : Russian



   Похожие торренты   Торрент   Размер 
В этой теме нет новых непрочитанных сообщений. XXII Зимниe Олимпийскиe игры. Санный спорт. Женщины. [HD Спорт] [11.02] (2014) HDTV 1080i

3 | 2

14.25 ГБ

В этой теме нет новых непрочитанных сообщений. XXII Зимниe Олимпийскиe игры. Санный спорт. Мужчины. Двухместные сани [Первый HD] [12.02] (2014) HDTV 1080i

7 | 3

7.11 ГБ

В этой теме нет новых непрочитанных сообщений. XXII Зимниe Олимпийскиe игры. Санный спорт. Женщины. 1,2,3,4 попытки [Спорт] [11.02] (2014) IPTV

6 | 4

2.82 ГБ

В этой теме нет новых непрочитанных сообщений. XXII Зимниe Олимпийскиe игры. Прыжки на лыжах с трамплина. Женщины. HS 106. 2 Попытка [HD Первый] [11.02] (2014) HDTV 1080i

24 | 8

4.33 ГБ

В этой теме нет новых непрочитанных сообщений. XXII Зимниe Олимпийскиe игры. Горные лыжи. Скоростной спуск. Женщины [HD Спорт 1] [12.02] (2014) HDTV 1080i

35 | 3

3.93 ГБ

В этой теме нет новых непрочитанных сообщений. XXII Зимние Олимпийские игры. Санный спорт. Мужики. Вторая попытка [Спорт 1 HD] (2014) HDTV 1080i

35 | 5

2.5 ГБ

В этой теме нет новых непрочитанных сообщений. XXII Зимниe Олимпийскиe игры. Конькобежный спорт. Мужчины. 1000 метров [HD Спорт] [12.02] (2014) HDTV 1080i

9 | 6

10.58 ГБ




Вы не можете начинать темы
Вы не можете отвечать на сообщения
Вы не можете редактировать свои сообщения
Вы не можете удалять свои сообщения
Вы не можете добавлять вложения

Перейти:  
Для Мосгорсуда, Роскомнадзора и рекламодателей: mosgorsud-torrent[собачка]yandex.ru
 Вход
ppkBB3cker v.2 © 2008-2014 @ PPK
[ Time : 0.533s | 14 Queries | GZIP : Off ]

Торрент трекер RUTOR.IN, Не можете зайти на rutor.org? Какой новый адрес рутор? Какое зеркало рутор? Не работает rutor.org и зеркала? Тогда наш торрент специально для вас. Rutor.in неофициальное зеркало rutor. В случае если у Вас заблокирован rutor или вдруг Вы не можете на него зайти, то Вы без труда сможете скачать бесплатно и без рекламы последние новинки кино, игр, сериалов и прочего у нас, на Rutor.in. Не нужно использовать прокси, чтобы зайти на рутор, достаточно воспользоваться нашим ресурсом. Все новые фильмы, игры, сериалы, книги и музыка за 2013 и 2014 годы через торрент бесплатно. Скачивайте фильмы в хорошем качестве, игры для пк, xbox, playstation без регистрации. У нас вы найдете новые Зарубежные сериалы и Русские сериалы 2013, 2014, 2015 годов. Оставайтесь с нами, качайте любимые фильмы, игры, сериалы, книги и музыку.