img image001 image001 image001 image001 image001 image001 image001 image001 image001 image001 image001 image001 image001 image001 image001

Planets Sun Sun Sun
Статистика раздачи
Автор: PriZraK | Размер: 4.33 ГБ | Добавлен: 15 фев 2014
Раздают: 24    Качают: 8
Скачать торрент
Скачать торрент
Описание торрента

СообщениеДобавлено: 15 фев 2014 

XXII Зимние Олимпийские Игры 2014. Прыжки на лыжах с трамплина. Женщины. Личный старт. Малый трамплин. HS 106. 2 Попытка

Вид спорта: Прыжки на лыжах с трамплина
Комментарий: Профессиональный
Язык комментариев: Русский (Сергей Курдюков)
Описание: XXII Зимние Олимпийские Игры 2014. Прыжки на лыжах с трамплина. Женщины. Личный старт. Малый трамплин. HS 106. 2 Попытка

Трансляция началась со ВТОРОЙ ПОПЫТКИ!

Автор рипа: sanchez2011

Качество: HDTV
Формат: MPEG-TS
Видео кодек: AVC
Аудио кодек: MP2
Видео: MPEG4 Video (H264) 1920x1080 15.25Mbps 25fps
Аудио: MPEG Audio 48000Hz stereo 192kbps

Все результаты соревнований

Продолжительность: 00:38:50


General
ID : 1 (0x1)
Complete name : E:Олимпиада 2014XXII Зимние Олимпийские Игры 2014. 11.01.2014 Прыжки на лыжах с трамплина. Личный старт. Средний трамплин. Женщины. Финал. Вторая попытка.ts
Format : MPEG-TS
File size : 4.33 GiB
Duration : 38mn 50s
Overall bit rate mode : Variable
Overall bit rate : 16.0 Mbps

Video
ID : 2141 (0x85D)
Menu ID : 1 (0x1)
Format : AVC
Format/Info : Advanced Video Codec
Format profile : Main@L4.0
Format settings, CABAC : Yes
Format settings, ReFrames : 3 frames
Codec ID : 27
Duration : 38mn 50s
Bit rate : 15.0 Mbps
Width : 1 920 pixels
Height : 1 080 pixels
Display aspect ratio : 16:9
Frame rate : 25.000 fps
Standard : Component
Color space : YUV
Chroma subsampling : 4:2:0
Bit depth : 8 bits
Scan type : Interlaced
Scan order : Top Field First
Bits/(Pixel*Frame) : 0.289
Stream size : 4.06 GiB (94%)
Color primaries : BT.709
Transfer characteristics : BT.709
Matrix coefficients : BT.709

Audio
ID : 2142 (0x85E)
Menu ID : 1 (0x1)
Format : MPEG Audio
Format version : Version 1
Format profile : Layer 2
Codec ID : 3
Duration : 38mn 50s
Bit rate mode : Constant
Bit rate : 192 Kbps
Channel(s) : 2 channels
Sampling rate : 48.0 KHz
Compression mode : Lossy
Stream size : 53.3 MiB (1%)
Language : Russian



   Похожие торренты   Торрент   Размер 
В этой теме нет новых непрочитанных сообщений. XXII Зимниe Олимпийскиe игры. Санный спорт. Женщины. 4-я попытка [Россия HD] [11.02] (2014) HDTV 1080i

9 | 2

2.83 ГБ

В этой теме нет новых непрочитанных сообщений. XXII Зимние Олимпийские игры. Прыжки на лыжах с трамплина. Личный старт. Большой трамплин [Первый HD] [15.02] (2014) HDTV 1080i

27 | 30

10.29 ГБ

В этой теме нет новых непрочитанных сообщений. XXII зимние Олимпийские игры. Прыжки на лыжах с трамплина. Мужчины. К 125. Ком соревнования [Спорт 1 HD, ORF 1 HD ] [17.02] (2014) HDTV 1080i

7 | 10

19.8 ГБ

В этой теме нет новых непрочитанных сообщений. XXII Зимние Олимпийские игры. Прыжки на лыжах с трамплина. Личный старт. Большой трамплин [Спортхит HD] [15.02] (2014) HDTV 1080i

31 | 81

24.62 ГБ

В этой теме нет новых непрочитанных сообщений. XXII Зимниe Олимпийскиe игры. Лыжные гонки. Спринт. 1/4, 1/2, Финалы [Первый HD] [11.02] (2014) HDTV 1080i

3 | 3

4.73 ГБ

В этой теме нет новых непрочитанных сообщений. XXII Зимниe Олимпийскиe игры. Лыжные гонки. Спринт. Квалификация [Первый HD] [11.02] (2014) HDTV 1080i

160 | 6

9.65 ГБ

В этой теме нет новых непрочитанных сообщений. XXII Зимниe Олимпийскиe игры. Горные лыжи. Скоростной спуск. Женщины [HD Спорт 1] [12.02] (2014) HDTV 1080i

35 | 3

3.93 ГБ




Вы не можете начинать темы
Вы не можете отвечать на сообщения
Вы не можете редактировать свои сообщения
Вы не можете удалять свои сообщения
Вы не можете добавлять вложения

Перейти:  
Для Мосгорсуда, Роскомнадзора и рекламодателей: mosgorsud-torrent[собачка]yandex.ru
 Вход
ppkBB3cker v.2 © 2008-2014 @ PPK
[ Time : 0.020s | 15 Queries | GZIP : On ]

Торрент трекер RUTOR.IN, Не можете зайти на rutor.org? Какой новый адрес рутор? Какое зеркало рутор? Не работает rutor.org и зеркала? Тогда наш торрент специально для вас. Rutor.in неофициальное зеркало rutor. В случае если у Вас заблокирован rutor или вдруг Вы не можете на него зайти, то Вы без труда сможете скачать бесплатно и без рекламы последние новинки кино, игр, сериалов и прочего у нас, на Rutor.in. Не нужно использовать прокси, чтобы зайти на рутор, достаточно воспользоваться нашим ресурсом. Все новые фильмы, игры, сериалы, книги и музыка за 2013 и 2014 годы через торрент бесплатно. Скачивайте фильмы в хорошем качестве, игры для пк, xbox, playstation без регистрации. У нас вы найдете новые Зарубежные сериалы и Русские сериалы 2013, 2014, 2015 годов. Оставайтесь с нами, качайте любимые фильмы, игры, сериалы, книги и музыку.