img image001 image001 image001 image001 image001 image001 image001 image001 image001 image001 image001 image001 image001 image001 image001

Planets Sun Sun Sun
Статистика раздачи
Автор: PriZraK | Размер: 2.68 ГБ | Добавлен: 15 фев 2014
Раздают: 15    Качают: 2
Скачать торрент
Скачать торрент
Описание торрента

СообщениеДобавлено: 15 фев 2014 

XXII Зимние Олимпийские Игры 2014. Кёрлинг. Круговой этап. Сессия 4. Женщины. Россия - Япония

Вид спорта: Кёрлинг
Комментарий: Профессиональный
Язык комментариев: Русский
Описание: XXII Зимние Олимпийские Игры 2014. Кёрлинг. Круговой этап. Сессия 4. Женщины. Россия - Япония.

Запись с конца второго энда.
Автор рипа: sanchez2011
Качество: DVB
Формат: MPEG-TS
Видео кодек: AVC
Аудио кодек: MP2
Видео: MPEG4 Video (H264) 720x576 (4:3) 25fps 2600kbps
Аудио: MPEG Audio 48000Hz stereo 192kbps

Все результаты соревнований

Продолжительность: 02:11:12


General
ID : 1 (0x1)
Complete name : E:Олимпиада 2014XXII Зимние Олимпийские Игры 2014. 12.02.2014 Кёрлинг. Круговой этап. Сессия 4. Женщины. Россия - Япония.ts
Format : MPEG-TS
File size : 2.68 GiB
Duration : 2h 11mn
Overall bit rate mode : Variable
Overall bit rate : 2 923 Kbps

Video
ID : 1031 (0x407)
Menu ID : 1 (0x1)
Format : AVC
Format/Info : Advanced Video Codec
Format profile : Main@L3.0
Format settings, CABAC : Yes
Format settings, ReFrames : 3 frames
Format settings, GOP : M=4, N=28
Codec ID : 27
Duration : 2h 11mn
Bit rate : 2 585 Kbps
Width : 720 pixels
Height : 576 pixels
Display aspect ratio : 4:3
Frame rate : 25.000 fps
Standard : Component
Color space : YUV
Chroma subsampling : 4:2:0
Bit depth : 8 bits
Scan type : Interlaced
Scan order : Top Field First
Bits/(Pixel*Frame) : 0.249
Stream size : 2.37 GiB (88%)
Color primaries : BT.601 PAL
Transfer characteristics : BT.470 System B, BT.470 System G
Matrix coefficients : BT.601

Audio
ID : 1032 (0x408)
Menu ID : 1 (0x1)
Format : MPEG Audio
Format version : Version 1
Format profile : Layer 2
Codec ID : 3
Duration : 2h 11mn
Bit rate mode : Constant
Bit rate : 192 Kbps
Channel(s) : 2 channels
Sampling rate : 48.0 KHz
Compression mode : Lossy
Stream size : 180 MiB (7%)
Language : English



   Похожие торренты   Торрент   Размер 
В этой теме нет новых непрочитанных сообщений. XXII Зимние Олимпийские игры. Кёрлинг. Круговой этап. Сессия 5. Женщины. Россия - Южная Корея [Россия 2, Спорт] [13.02] (2014) SATRip

19 | 3

1.66 ГБ

В этой теме нет новых непрочитанных сообщений. XXII Зимниe Олимпийскиe игры. Кёрлинг. Круговой этап. Сессия 4. Мужчины. Норвегия - Германия [Спортхит] [12.02] (2014) DVB

9 | 2

6.58 ГБ

В этой теме нет новых непрочитанных сообщений. XXII Зимние Олимпийские игры. Кёрлинг. Круговой этап. Сессия 6. Женщины. Россия - Корея [Спортхит] [13.02] (2014) DVB

26 | 10

4.01 ГБ

В этой теме нет новых непрочитанных сообщений. XXII зимние Олимпийские игры. Кёрлинг. Круговой этап. Сессия 10. Женщины. Россия - Швеция [Первый] DVB[16.02] (2014)

13 | 40

1.83 ГБ

В этой теме нет новых непрочитанных сообщений. XXII Зимниe Олимпийскиe игры. Хоккей. Женщины. Россия - Япония [Спортхит] [11.02] (2014) DVB

15 | 3

4.3 ГБ

В этой теме нет новых непрочитанных сообщений. XXII Зимниe Олимпийскиe игры. Хоккей. Женщины. Россия - Япония [XSport] [11.02] (2014) IPTV

81 | 3

1.35 ГБ

В этой теме нет новых непрочитанных сообщений. XXII Зимние Олимпийские игры. Кёрлинг. Круговой этап. 9-й тур. Женщины. Канада - Россия [Первый] [15.02] (2014) DVB

108 | 36

2.36 ГБ




Вы не можете начинать темы
Вы не можете отвечать на сообщения
Вы не можете редактировать свои сообщения
Вы не можете удалять свои сообщения
Вы не можете добавлять вложения

Перейти:  
Для Мосгорсуда, Роскомнадзора и рекламодателей: mosgorsud-torrent[собачка]yandex.ru
 Вход
ppkBB3cker v.2 © 2008-2014 @ PPK
[ Time : 0.051s | 14 Queries | GZIP : Off ]

Торрент трекер RUTOR.IN, Не можете зайти на rutor.org? Какой новый адрес рутор? Какое зеркало рутор? Не работает rutor.org и зеркала? Тогда наш торрент специально для вас. Rutor.in неофициальное зеркало rutor. В случае если у Вас заблокирован rutor или вдруг Вы не можете на него зайти, то Вы без труда сможете скачать бесплатно и без рекламы последние новинки кино, игр, сериалов и прочего у нас, на Rutor.in. Не нужно использовать прокси, чтобы зайти на рутор, достаточно воспользоваться нашим ресурсом. Все новые фильмы, игры, сериалы, книги и музыка за 2013 и 2014 годы через торрент бесплатно. Скачивайте фильмы в хорошем качестве, игры для пк, xbox, playstation без регистрации. У нас вы найдете новые Зарубежные сериалы и Русские сериалы 2013, 2014, 2015 годов. Оставайтесь с нами, качайте любимые фильмы, игры, сериалы, книги и музыку.