img image001 image001 image001 image001 image001 image001 image001 image001 image001 image001 image001 image001 image001 image001 image001

Planets Sun Sun Sun
Статистика раздачи
Автор: PriZraK | Размер: 7.11 ГБ | Добавлен: 15 фев 2014
Раздают: 7    Качают: 3
Скачать торрент
Скачать торрент
Описание торрента

СообщениеДобавлено: 15 фев 2014 

XXII Зимние Олимпийские Игры 2014. Санный спорт. Мужчины. Двухместные сани. 1-я и 2-я попытки

Вид спорта: Санный спорт
Комментарий: Профессиональный
Язык комментариев: Русский ()
Описание: XXII Зимние Олимпийские Игры 2014. Санный спорт. Мужчины. Двухместные сани. 1-я и 2-я попытки.

Автор рипа: sanchez2011

Качество: HDTV
Формат: MPEG-TS
Видео кодек: AVC
Аудио кодек: MP2
Видео: MPEG4 Video (H264) 1920x1080 16Mbps 25fps
Аудио: MPEG Audio 48000Hz stereo 192kbps

Все результаты соревнований

Продолжительность: 01:01:03


General
ID : 1 (0x1)
Complete name : E:Олимпиада 2014XXII Зимние Олимпийские Игры 2014. 12.02.2014 Санный спорт. Мужчины. Двухместные сани. 1-я и 2-я попытки.ts
Format : MPEG-TS
File size : 7.11 GiB
Duration : 1h 1mn
Overall bit rate mode : Variable
Overall bit rate : 16.7 Mbps

Video
ID : 2141 (0x85D)
Menu ID : 1 (0x1)
Format : AVC
Format/Info : Advanced Video Codec
Format profile : Main@L4.0
Format settings, CABAC : Yes
Format settings, ReFrames : 3 frames
Codec ID : 27
Duration : 1h 1mn
Bit rate : 15.6 Mbps
Width : 1 920 pixels
Height : 1 080 pixels
Display aspect ratio : 16:9
Frame rate : 25.000 fps
Standard : Component
Color space : YUV
Chroma subsampling : 4:2:0
Bit depth : 8 bits
Scan type : Interlaced
Scan order : Top Field First
Bits/(Pixel*Frame) : 0.302
Stream size : 6.67 GiB (94%)
Color primaries : BT.709
Transfer characteristics : BT.709
Matrix coefficients : BT.709

Audio
ID : 2142 (0x85E)
Menu ID : 1 (0x1)
Format : MPEG Audio
Format version : Version 1
Format profile : Layer 2
Codec ID : 3
Duration : 1h 1mn
Bit rate mode : Constant
Bit rate : 192 Kbps
Channel(s) : 2 channels
Sampling rate : 48.0 KHz
Compression mode : Lossy
Stream size : 83.9 MiB (1%)
Language : Russian



   Похожие торренты   Торрент   Размер 
В этой теме нет новых непрочитанных сообщений. XXII Зимние Олимпийские игры. Санный спорт. Мужчины. Двухместные сани. 1-я и 2-я попытки [HD Спорт] [12.02] (2014) HDTV 1080i

22 | 4

5.87 ГБ

В этой теме нет новых непрочитанных сообщений. XXII Зимниe Олимпийскиe игры. Санный спорт. Женщины. [HD Спорт] [11.02] (2014) HDTV 1080i

3 | 2

14.25 ГБ

В этой теме нет новых непрочитанных сообщений. XXII Зимниe Олимпийскиe игры. Санный спорт. Женщины. 4-я попытка [Россия HD] [11.02] (2014) HDTV 1080i

9 | 2

2.83 ГБ

В этой теме нет новых непрочитанных сообщений. XXII Зимниe Олимпийскиe игры. Конькобежный спорт. Мужчины. 1000 метров [Спорт 1 HD] [12.02] (2014) HDTV 1080i

11 | 2

2.81 ГБ

В этой теме нет новых непрочитанных сообщений. XXII Зимниe Олимпийскиe игры. Конькобежный спорт. Мужчины. 1000 метров [HD Спорт] [12.02] (2014) HDTV 1080i

9 | 6

10.58 ГБ

В этой теме нет новых непрочитанных сообщений. XXII Зимниe Олимпийскиe игры. Лыжное двоеборье. Мужчины. Гонка 10 км [HD Спорт] [12.02] (2014) HDTV 1080i

10 | 2

4.86 ГБ

В этой теме нет новых непрочитанных сообщений. XXII Зимниe Олимпийскиe игры. Конькобежный спорт. Мужчины. 500 метров [HD Спортхит] [10.02] (2014) HDTV 1080i

3 | 2

12.31 ГБ




Вы не можете начинать темы
Вы не можете отвечать на сообщения
Вы не можете редактировать свои сообщения
Вы не можете удалять свои сообщения
Вы не можете добавлять вложения

Перейти:  
Для Мосгорсуда, Роскомнадзора и рекламодателей: mosgorsud-torrent[собачка]yandex.ru
 Вход
ppkBB3cker v.2 © 2008-2014 @ PPK
[ Time : 2.276s | 14 Queries | GZIP : Off ]

Торрент трекер RUTOR.IN, Не можете зайти на rutor.org? Какой новый адрес рутор? Какое зеркало рутор? Не работает rutor.org и зеркала? Тогда наш торрент специально для вас. Rutor.in неофициальное зеркало rutor. В случае если у Вас заблокирован rutor или вдруг Вы не можете на него зайти, то Вы без труда сможете скачать бесплатно и без рекламы последние новинки кино, игр, сериалов и прочего у нас, на Rutor.in. Не нужно использовать прокси, чтобы зайти на рутор, достаточно воспользоваться нашим ресурсом. Все новые фильмы, игры, сериалы, книги и музыка за 2013 и 2014 годы через торрент бесплатно. Скачивайте фильмы в хорошем качестве, игры для пк, xbox, playstation без регистрации. У нас вы найдете новые Зарубежные сериалы и Русские сериалы 2013, 2014, 2015 годов. Оставайтесь с нами, качайте любимые фильмы, игры, сериалы, книги и музыку.