img image001 image001 image001 image001 image001 image001 image001 image001 image001 image001 image001 image001 image001 image001 image001

Planets Sun Sun Sun
Статистика раздачи
Автор: PriZraK | Размер: 1023.77 МБ | Добавлен: 15 фев 2014
Раздают: 91    Качают: 20
Скачать торрент
Скачать торрент
Описание торрента

СообщениеДобавлено: 15 фев 2014 

XXII Зимние Олимпийские Игры 2014. Санный спорт. Эстафета

Вид спорта: Санный спорт
Комментарий: Профессиональный
Язык комментариев: Русский
Описание: XXII Зимние Олимпийские Игры 2014. Санный спорт. Эстафета.
Автор рипа: sanchez2011
Качество: DVB
Формат: MPEG-TS
Видео кодек: AVC
Аудио кодек: MP2
Видео: MPEG4 Video (H264) 720x576 (4:3) 25fps 2600kbps
Аудио: MPEG Audio 48000Hz stereo 192kbps

Все результаты соревнований

Продолжительность: 00:48:58


General
ID : 1 (0x1)
Complete name : E:Олимпиада 2014XXII Зимние Олимпийские Игры 2014. 13.02.2014 Санный спорт. Эстафета.ts
Format : MPEG-TS
File size : 1 024 MiB
Duration : 48mn 58s
Overall bit rate mode : Variable
Overall bit rate : 2 923 Kbps

Video
ID : 1031 (0x407)
Menu ID : 1 (0x1)
Format : AVC
Format/Info : Advanced Video Codec
Format profile : Main@L3.0
Format settings, CABAC : Yes
Format settings, ReFrames : 3 frames
Format settings, GOP : M=4, N=28
Codec ID : 27
Duration : 48mn 58s
Bit rate : 2 585 Kbps
Width : 720 pixels
Height : 576 pixels
Display aspect ratio : 4:3
Frame rate : 25.000 fps
Standard : Component
Color space : YUV
Chroma subsampling : 4:2:0
Bit depth : 8 bits
Scan type : Interlaced
Scan order : Top Field First
Bits/(Pixel*Frame) : 0.249
Stream size : 905 MiB (88%)
Color primaries : BT.601 PAL
Transfer characteristics : BT.470 System B, BT.470 System G
Matrix coefficients : BT.601

Audio
ID : 1032 (0x408)
Menu ID : 1 (0x1)
Format : MPEG Audio
Format version : Version 1
Format profile : Layer 2
Codec ID : 3
Duration : 48mn 58s
Bit rate mode : Constant
Bit rate : 192 Kbps
Channel(s) : 2 channels
Sampling rate : 48.0 KHz
Compression mode : Lossy
Stream size : 67.2 MiB (7%)
Language : English



   Похожие торренты   Торрент   Размер 
В этой теме нет новых непрочитанных сообщений. XXII Зимние Олимпийские игры. Санный спорт. Эстафета [HD Спорт] [13.02] (2014) HDTV 1080i

11 | 9

6.42 ГБ

В этой теме нет новых непрочитанных сообщений. XXII Зимние Олимпийские игры. Санный спорт. Мужики. 1, 2, 3, 4 попытки [Спорт] [09.02] (2014) IPTV

75 | 10

5.57 ГБ

В этой теме нет новых непрочитанных сообщений. XXII Зимние Олимпийские игры. Санный спорт. Женщины. 1, 2 попытки [Спорт] [09.02] (2014) IPTV

21 | 12

1.41 ГБ

В этой теме нет новых непрочитанных сообщений. XXII Зимние Олимпийские игры. Санный спорт. Мужчины на двухместных санях. Заезд 2 [HD Спорт ] [13.02] (2014) DVB

14 | 11

1.97 ГБ

В этой теме нет новых непрочитанных сообщений. XXII Зимние Олимпийские игры. Санный спорт. Мужики. Вторая попытка [Спорт 1 HD] (2014) HDTV 1080i

35 | 5

2.5 ГБ

В этой теме нет новых непрочитанных сообщений. XXII Зимние Олимпийские игры. Санный спорт. Мужчины. Двухместные сани. 1-я и 2-я попытки [HD Спорт] [12.02] (2014) HDTV 1080i

22 | 4

5.87 ГБ

В этой теме нет новых непрочитанных сообщений. XXII Зимние Олимпийские игры. Санный спорт. Мужчины на одноместных санях, заезд 4 [HD Спорт] [09.02] (2014) HDTV 1080i

11 | 3

10.56 ГБ




Вы не можете начинать темы
Вы не можете отвечать на сообщения
Вы не можете редактировать свои сообщения
Вы не можете удалять свои сообщения
Вы не можете добавлять вложения

Перейти:  
Для Мосгорсуда, Роскомнадзора и рекламодателей: mosgorsud-torrent[собачка]yandex.ru
 Вход
ppkBB3cker v.2 © 2008-2014 @ PPK
[ Time : 0.019s | 15 Queries | GZIP : Off ]

cron