img image001 image001 image001 image001 image001 image001 image001 image001 image001 image001 image001 image001 image001 image001 image001

Planets Sun Sun Sun
Статистика раздачи
Автор: PriZraK | Размер: 864.04 МБ | Добавлен: 15 фев 2014
Раздают: 69    Качают: 13
Скачать торрент
Скачать торрент
Описание торрента

СообщениеДобавлено: 15 фев 2014 

XXII Зимние Олимпийские Игры 2014. Конькобежный спорт. Женщины. 1000 метров

Вид спорта: Конькобежный спорт
Комментарий: Профессиональный
Язык комментариев: Русский
Описание: XXII Зимние Олимпийские Игры 2014. Конькобежный спорт. Женщины. 1000 метров.

Запись со старта 9 пары.
Автор рипа: sanchez2011
Качество: DVB
Формат: MPEG-TS
Видео кодек: AVC
Аудио кодек: MP2
Видео: MPEG4 Video (H264) 720x576 (4:3) 25fps 2600kbps
Аудио: MPEG Audio 48000Hz stereo 192kbps

Все результаты соревнований

Продолжительность: 00:41:17


General
ID : 1 (0x1)
Complete name : E:Олимпиада 2014XXII Зимние Олимпийские Игры 2014. 13.02.2014 Конькобежный спорт. Женщины. 1000 метров.ts
Format : MPEG-TS
File size : 864 MiB
Duration : 41mn 17s
Overall bit rate mode : Variable
Overall bit rate : 2 925 Kbps

Video
ID : 1031 (0x407)
Menu ID : 1 (0x1)
Format : AVC
Format/Info : Advanced Video Codec
Format profile : Main@L3.0
Format settings, CABAC : Yes
Format settings, ReFrames : 3 frames
Format settings, GOP : M=4, N=28
Codec ID : 27
Duration : 41mn 17s
Bit rate : 2 587 Kbps
Width : 720 pixels
Height : 576 pixels
Display aspect ratio : 4:3
Frame rate : 25.000 fps
Standard : Component
Color space : YUV
Chroma subsampling : 4:2:0
Bit depth : 8 bits
Scan type : Interlaced
Scan order : Top Field First
Bits/(Pixel*Frame) : 0.249
Stream size : 764 MiB (88%)
Color primaries : BT.601 PAL
Transfer characteristics : BT.470 System B, BT.470 System G
Matrix coefficients : BT.601

Audio
ID : 1032 (0x408)
Menu ID : 1 (0x1)
Format : MPEG Audio
Format version : Version 1
Format profile : Layer 2
Codec ID : 3
Duration : 41mn 17s
Bit rate mode : Constant
Bit rate : 192 Kbps
Channel(s) : 2 channels
Sampling rate : 48.0 KHz
Compression mode : Lossy
Stream size : 56.7 MiB (7%)
Language : English



   Похожие торренты   Торрент   Размер 
В этой теме нет новых непрочитанных сообщений. XXII зимние Олимпийские игры. Конькобежный спорт. Женщины. 1500 метров [Онлайн] [15.02] (2014) IPTV

19 | 2

1.55 ГБ

В этой теме нет новых непрочитанных сообщений. XXII зимние Олимпийские игры. Конькобежный спорт. Женщины 1000 м. Квалификация [Перший] [18.02] (2014) DVBRip

17 | 12

503.47 МБ

В этой теме нет новых непрочитанных сообщений. XXII Зимние Олимпийские игры. Шорт-трек. Женщины, 500 метров, Финал. Мужчины, 1000 метров, забеги [Спортхит] [13.02] (2014) DVB

20 | 13

3.8 ГБ

В этой теме нет новых непрочитанных сообщений. XXII Зимние Олимпийские игры. Конькобежный спорт. 3000 м. Женщины [Спорт 1 HD] [09.02] (2014) HDTVRip

44 | 8

1.31 ГБ

В этой теме нет новых непрочитанных сообщений. XXII зимние Олимпийские игры. Конькобежный спорт. Женщины 5000 м [HD Спорт] [19.02] (2014) HDTV 1080i

42 | 21

5.82 ГБ

В этой теме нет новых непрочитанных сообщений. XXII Зимние Олимпийские игры. Конькобежный спорт. 3000 м. Женщины [Спорт 1 HD] [09.02] (2014) HDTV 1080i от MediaClub

52 | 7

6.18 ГБ

В этой теме нет новых непрочитанных сообщений. XXII Зимниe Олимпийскиe игры. Конькобежный спорт. Мужчины. 1000 метров [HD Спорт] [12.02] (2014) HDTVRip

70 | 11

1.48 ГБ




Вы не можете начинать темы
Вы не можете отвечать на сообщения
Вы не можете редактировать свои сообщения
Вы не можете удалять свои сообщения
Вы не можете добавлять вложения

Перейти:  
Для Мосгорсуда, Роскомнадзора и рекламодателей: mosgorsud-torrent[собачка]yandex.ru
 Вход
ppkBB3cker v.2 © 2008-2014 @ PPK
[ Time : 0.048s | 14 Queries | GZIP : Off ]

Торрент трекер RUTOR.IN, Не можете зайти на rutor.org? Какой новый адрес рутор? Какое зеркало рутор? Не работает rutor.org и зеркала? Тогда наш торрент специально для вас. Rutor.in неофициальное зеркало rutor. В случае если у Вас заблокирован rutor или вдруг Вы не можете на него зайти, то Вы без труда сможете скачать бесплатно и без рекламы последние новинки кино, игр, сериалов и прочего у нас, на Rutor.in. Не нужно использовать прокси, чтобы зайти на рутор, достаточно воспользоваться нашим ресурсом. Все новые фильмы, игры, сериалы, книги и музыка за 2013 и 2014 годы через торрент бесплатно. Скачивайте фильмы в хорошем качестве, игры для пк, xbox, playstation без регистрации. У нас вы найдете новые Зарубежные сериалы и Русские сериалы 2013, 2014, 2015 годов. Оставайтесь с нами, качайте любимые фильмы, игры, сериалы, книги и музыку.