img image001 image001 image001 image001 image001 image001 image001 image001 image001 image001 image001 image001 image001 image001 image001

Planets Sun Sun Sun
Статистика раздачи
Автор: PriZraK | Размер: 2.68 ГБ | Добавлен: 15 фев 2014
Раздают: 141    Качают: 8
Скачать торрент
Скачать торрент
Описание торрента

СообщениеДобавлено: 15 фев 2014 

XXII Зимние Олимпийские Игры 2014. Биатлон. Мужчины. Индивидуальная гонка 20 км

Вид спорта: Биатлон
Комментарий: Профессиональный
Язык комментариев: Русский (Набутов (как же ж он истерил пол трансляции ) и Круглов)
Описание: XXII Зимние Олимпийские Игры 2014. Биатлон. Мужчины. Индивидуальная гонка 20 км.
Автор рипа: sanchez2011
Качество: DVB
Формат: MPEG-PS
Видео кодек: MPEG2
Аудио кодек: MP2
Видео: MPEG2 Video 720x576 (16:9) 25fps 4000kbps
Аудио: MPEG Audio 48000Hz stereo 192kbps


Все результаты соревнований

Продолжительность: 01:31:03


General
Complete name : E:Олимпиада 2014XXII Зимние Олимпийские Игры 2014. 13.02.2014 Биатлон. Мужчины. Индивидуальная гонка 20 км.mpg
Format : MPEG-PS
File size : 2.68 GiB
Duration : 1h 31mn
Overall bit rate mode : Variable
Overall bit rate : 4 213 Kbps

Video
ID : 224 (0xE0)
Format : MPEG Video
Format version : Version 2
Format profile : Main@Main
Format settings, BVOP : Yes
Format settings, Matrix : Custom
Format settings, GOP : Variable
Duration : 1h 31mn
Bit rate mode : Variable
Bit rate : 3 937 Kbps
Maximum bit rate : 15.0 Mbps
Width : 720 pixels
Height : 576 pixels
Display aspect ratio : 16:9
Frame rate : 25.000 fps
Standard : PAL
Color space : YUV
Chroma subsampling : 4:2:0
Bit depth : 8 bits
Scan type : Interlaced
Scan order : Top Field First
Compression mode : Lossy
Bits/(Pixel*Frame) : 0.380
Time code of first frame : 00:00:00:00
Time code source : Group of pictures header
Stream size : 2.50 GiB (93%)

Audio
ID : 192 (0xC0)
Format : MPEG Audio
Format version : Version 1
Format profile : Layer 2
Duration : 1h 31mn
Bit rate mode : Constant
Bit rate : 192 Kbps
Channel(s) : 2 channels
Sampling rate : 48.0 KHz
Compression mode : Lossy
Stream size : 125 MiB (5%)



   Похожие торренты   Торрент   Размер 
В этой теме нет новых непрочитанных сообщений. XXII Зимние Олимпийские игры. Биатлон. Мужчины. Индивидуальная гонка 20 км [Спорт 1HD] [13.02] (2014) HDTVRip

153 | 19

1.45 ГБ

В этой теме нет новых непрочитанных сообщений. XXII Зимние Олимпийские игры. Биатлон. Мужчины. Индивидуальная гонка 20 км [HD Спорт ] [13.02] (2014) HDTV 1080i

13 | 5

12.69 ГБ

В этой теме нет новых непрочитанных сообщений. XXII Зимние Олимпийские игры. Биатлон. Мужчины. Индивидуальная гонка 20 км [Спорт 1HD] [13.02] (2014) HDTVRip 720р

109 | 16

2.26 ГБ

В этой теме нет новых непрочитанных сообщений. XXII Зимние Олимпийские игры. Биатлон. Индивидуальная гонка. Женщины [Спорт 1 HD] [14.02] (2014) HDTVRip

530 | 49

1.29 ГБ

В этой теме нет новых непрочитанных сообщений. XXII Зимние Олимпийские игры. Биатлон. Индивидуальная гонка. Женщины [Спорт 1 HD] [14.02] (2014) HDTV 1080i от MediaClub

70 | 7

11.82 ГБ

В этой теме нет новых непрочитанных сообщений. XXII Зимние Олимпийские игры. Биатлон. Гонка преследования. Мужчины [HD Спорт] [10.02] (2014) HDTVRip

85 | 11

915.6 МБ

В этой теме нет новых непрочитанных сообщений. XXII Зимние Олимпийские игры. Биатлон. Мужчины. Спринт 10 км [Спорт 1 HD] (2014) HDTVRip

0 | 5

1.39 ГБ




Вы не можете начинать темы
Вы не можете отвечать на сообщения
Вы не можете редактировать свои сообщения
Вы не можете удалять свои сообщения
Вы не можете добавлять вложения

Перейти:  
Для Мосгорсуда, Роскомнадзора и рекламодателей: mosgorsud-torrent[собачка]yandex.ru
 Вход
ppkBB3cker v.2 © 2008-2014 @ PPK
[ Time : 0.023s | 14 Queries | GZIP : Off ]

Торрент трекер RUTOR.IN, Не можете зайти на rutor.org? Какой новый адрес рутор? Какое зеркало рутор? Не работает rutor.org и зеркала? Тогда наш торрент специально для вас. Rutor.in неофициальное зеркало rutor. В случае если у Вас заблокирован rutor или вдруг Вы не можете на него зайти, то Вы без труда сможете скачать бесплатно и без рекламы последние новинки кино, игр, сериалов и прочего у нас, на Rutor.in. Не нужно использовать прокси, чтобы зайти на рутор, достаточно воспользоваться нашим ресурсом. Все новые фильмы, игры, сериалы, книги и музыка за 2013 и 2014 годы через торрент бесплатно. Скачивайте фильмы в хорошем качестве, игры для пк, xbox, playstation без регистрации. У нас вы найдете новые Зарубежные сериалы и Русские сериалы 2013, 2014, 2015 годов. Оставайтесь с нами, качайте любимые фильмы, игры, сериалы, книги и музыку.