img image001 image001 image001 image001 image001 image001 image001 image001 image001 image001 image001 image001 image001 image001 image001

Planets Sun Sun Sun
Статистика раздачи
Автор: PriZraK | Размер: 12.69 ГБ | Добавлен: 15 фев 2014
Раздают: 13    Качают: 5
Скачать торрент
Скачать торрент
Описание торрента

СообщениеДобавлено: 15 фев 2014 

XXII Зимние Олимпийские Игры 2014 / Биатлон / Мужчины / Индивидуальная гонка 20 км

Вид спорта: Биатлон
Дата/Год выпуска: 13.02.14
Язык комментариев: русский

Автор записи: SashaR.

Качество: DVB-S2 Remux
Формат видео: TS
Видео: AVC, 1920x1080, 16:9, 13.1 Mbps, 25 fps
Аудио: MP2, 192 kbps, 48 kHz, 2 channels
J:ОлимпиадаБиатлон. Мужчины. Индивидуальная гонка. 20 км (НТВ+).ts
General #6
ID : 6 (0x6)
Complete name : J:ОлимпиадаБиатлон. Мужчины. Индивидуальная гонка. 20 км (НТВ+).ts
Format : MPEG-TS
File size : 12.7 GiB
Duration : 2h 9mn
Overall bit rate mode : Variable
Overall bit rate : 14.0 Mbps
Video #322
ID : 322 (0x142)
Menu ID : 12102 (0x2F46)
Format : AVC
Format/Info : Advanced Video Codec
Format profile : High@L4.0
Format settings, CABAC : Yes
Format settings, ReFrames : 3 frames
Codec ID : 27
Duration : 2h 9mn
Bit rate : 13.1 Mbps
Width : 1 920 pixels
Height : 1 080 pixels
Display aspect ratio : 16:9
Frame rate : 25.000 fps
Standard : Component
Color space : YUV
Chroma subsampling : 4:2:0
Bit depth : 8 bits
Scan type : Interlaced
Scan order : Top Field First
Bits/(Pixel*Frame) : 0.253
Stream size : 11.9 GiB (94%)
Color primaries : BT.709
Transfer characteristics : BT.709
Matrix coefficients : BT.709
Audio #422
ID : 422 (0x1A6)
Menu ID : 12102 (0x2F46)
Format : MPEG Audio
Format version : Version 1
Format profile : Layer 2
Codec ID : 4
Duration : 2h 9mn
Bit rate mode : Constant
Bit rate : 192 Kbps
Channel count : 2 channels
Sampling rate : 48.0 KHz
Compression mode : Lossy
Delay relative to video : 93ms
Stream size : 178 MiB (1%)
Language : Russian
Language, more info : Clean effects

02:09:46






   Похожие торренты   Торрент   Размер 
В этой теме нет новых непрочитанных сообщений. XXII Зимние Олимпийские игры. Биатлон. Индивидуальная гонка. Женщины [Спорт 1 HD] [14.02] (2014) HDTV 1080i от MediaClub

70 | 7

11.82 ГБ

В этой теме нет новых непрочитанных сообщений. XXII Зимние Олимпийские игры. Биатлон. Мужчины. Индивидуальная гонка 20 км [HD Спорт ] [13.02] (2014) DVB

141 | 8

2.68 ГБ

В этой теме нет новых непрочитанных сообщений. XXII Зимние Олимпийские игры. Биатлон. Мужчины. Индивидуальная гонка 20 км [Спорт 1HD] [13.02] (2014) HDTVRip

153 | 19

1.45 ГБ

В этой теме нет новых непрочитанных сообщений. XXII Зимние Олимпийские игры. Биатлон. Мужчины. Индивидуальная гонка 20 км [Спорт 1HD] [13.02] (2014) HDTVRip 720р

109 | 16

2.26 ГБ

В этой теме нет новых непрочитанных сообщений. XXII Зимние Олимпийские игры. Биатлон. Индивидуальная гонка. Женщины [Спорт 1 HD] [14.02] (2014) HDTVRip

530 | 49

1.29 ГБ

В этой теме нет новых непрочитанных сообщений. XXII Зимние Олимпийские игры. Биатлон. Мужчины. Спринт 10 км [Спорт 1 HD] (2014) HDTV 1080i

0 | 2

3.39 ГБ

В этой теме нет новых непрочитанных сообщений. XXII зимние Олимпийские игры. Биатлон. Эстафета. Мужчины [Спорт HD] [22.02] (2014) HDTV 1080i

74 | 34

11.69 ГБ




Вы не можете начинать темы
Вы не можете отвечать на сообщения
Вы не можете редактировать свои сообщения
Вы не можете удалять свои сообщения
Вы не можете добавлять вложения

Перейти:  
Для Мосгорсуда, Роскомнадзора и рекламодателей: mosgorsud-torrent[собачка]yandex.ru
 Вход
ppkBB3cker v.2 © 2008-2014 @ PPK
[ Time : 0.021s | 14 Queries | GZIP : Off ]

Торрент трекер RUTOR.IN, Не можете зайти на rutor.org? Какой новый адрес рутор? Какое зеркало рутор? Не работает rutor.org и зеркала? Тогда наш торрент специально для вас. Rutor.in неофициальное зеркало rutor. В случае если у Вас заблокирован rutor или вдруг Вы не можете на него зайти, то Вы без труда сможете скачать бесплатно и без рекламы последние новинки кино, игр, сериалов и прочего у нас, на Rutor.in. Не нужно использовать прокси, чтобы зайти на рутор, достаточно воспользоваться нашим ресурсом. Все новые фильмы, игры, сериалы, книги и музыка за 2013 и 2014 годы через торрент бесплатно. Скачивайте фильмы в хорошем качестве, игры для пк, xbox, playstation без регистрации. У нас вы найдете новые Зарубежные сериалы и Русские сериалы 2013, 2014, 2015 годов. Оставайтесь с нами, качайте любимые фильмы, игры, сериалы, книги и музыку.