img image001 image001 image001 image001 image001 image001 image001 image001 image001 image001 image001 image001 image001 image001 image001

Planets Sun Sun Sun
Статистика раздачи
Автор: PriZraK | Размер: 12.64 ГБ | Добавлен: 15 фев 2014
Раздают: 4    Качают: 14
Скачать торрент
Скачать торрент
Описание торрента

СообщениеДобавлено: 15 фев 2014 

XXII Зимние Олимпийские Игры 2014 / Хоккей / Предварительный раунд / Женщины / Группа В / Россия - Япония


Вид спорта: Хоккей
Дата/Год выпуска: 11.02.14
Язык комментариев: русский

Автор записи: SashaR.

Качество: DVB-S2 Remux
Формат видео: TS
Видео: AVC, 1920x1080, 16:9, 15.2 Mbps, 25 fps
Аудио: MP2, 192 kbps, 48 kHz, 2 channels
J:ОлимпиадаХоккей. Предварительный раунд. Женщины. Группа В. Россия - Япония (НТВ+).ts
General #6
ID : 6 (0x6)
Complete name : J:ОлимпиадаХоккей. Предварительный раунд. Женщины. Группа В. Россия - Япония (НТВ+).ts
Format : MPEG-TS
File size : 12.6 GiB
Duration : 1h 51mn
Overall bit rate mode : Variable
Overall bit rate : 16.2 Mbps
Video #301
ID : 301 (0x12D)
Menu ID : 17101 (0x42CD)
Format : AVC
Format/Info : Advanced Video Codec
Format profile : High@L4.0
Format settings, CABAC : Yes
Format settings, ReFrames : 3 frames
Codec ID : 27
Duration : 1h 51mn
Bit rate : 15.2 Mbps
Width : 1 920 pixels
Height : 1 080 pixels
Display aspect ratio : 16:9
Frame rate : 25.000 fps
Standard : Component
Color space : YUV
Chroma subsampling : 4:2:0
Bit depth : 8 bits
Scan type : Interlaced
Scan order : Top Field First
Bits/(Pixel*Frame) : 0.293
Stream size : 11.9 GiB (94%)
Color primaries : BT.709
Transfer characteristics : BT.709
Matrix coefficients : BT.709
Audio #401
ID : 401 (0x191)
Menu ID : 17101 (0x42CD)
Format : MPEG Audio
Format version : Version 1
Format profile : Layer 2
Codec ID : 4
Duration : 1h 51mn
Bit rate mode : Constant
Bit rate : 192 Kbps
Channel count : 2 channels
Sampling rate : 48.0 KHz
Compression mode : Lossy
Delay relative to video : -16ms
Stream size : 154 MiB (1%)
Language : Russian
Language, more info : Clean effects

01:51:46






   Похожие торренты   Торрент   Размер 
В этой теме нет новых непрочитанных сообщений. XXII Зимние Олимпийские игры. Хоккей. Предварительный раунд. Женщины. Группа В. Россия - Швеция [HD Спорт] [13.02] (2014) HDTV 1080i

13 | 3

11.84 ГБ

В этой теме нет новых непрочитанных сообщений. XXII Зимние Олимпийские игры. Хоккей. Предварительный раунд. Мужчины. Группа А. Словакия - США [НТВ+] [13.02] (2014) HDTV 1080i

25 | 13

11.19 ГБ

В этой теме нет новых непрочитанных сообщений. XXII Зимние Олимпийские игры. Хоккей. Предварительный раунд. Мужчины. Группа А. Австрия - Финляндия [НТВ+] [13.02] (2014) HDTV 1080i

12 | 7

13.7 ГБ

В этой теме нет новых непрочитанных сообщений. XXII Зимние Олимпийские игры. Хоккей. Предварительный раунд. Мужчины. Группа С. Чехия - Латвия [НТВ+] [14.02] (2014) HDTV 1080i

34 | 4

13.32 ГБ

В этой теме нет новых непрочитанных сообщений. XXII Зимние Олимпийские игры. Хоккей. Предварительный раунд. Мужчины. Группа В. Канада - Австрия [NovaSportHD] [14.02] (2014) HDTV 1080i

336 | 75

9.48 ГБ

В этой теме нет новых непрочитанных сообщений. XXII Зимние Олимпийские игры. Хоккей. Предварительный раунд. Мужчины. Группа А. Словакия - США [Спорт] [13.02] (2014) IPTVRip

81 | 8

1.37 ГБ

В этой теме нет новых непрочитанных сообщений. XXII Зимние Олимпийские игры. Хоккей. Предварительный раунд. Мужчины. Группа B. Финляндия - Австрия [Спорт] [13.02] (2014) IPTVRip

71 | 8

1.26 ГБ




Вы не можете начинать темы
Вы не можете отвечать на сообщения
Вы не можете редактировать свои сообщения
Вы не можете удалять свои сообщения
Вы не можете добавлять вложения

Перейти:  
Для Мосгорсуда, Роскомнадзора и рекламодателей: mosgorsud-torrent[собачка]yandex.ru
 Вход
ppkBB3cker v.2 © 2008-2014 @ PPK
[ Time : 0.026s | 14 Queries | GZIP : Off ]

Торрент трекер RUTOR.IN, Не можете зайти на rutor.org? Какой новый адрес рутор? Какое зеркало рутор? Не работает rutor.org и зеркала? Тогда наш торрент специально для вас. Rutor.in неофициальное зеркало rutor. В случае если у Вас заблокирован rutor или вдруг Вы не можете на него зайти, то Вы без труда сможете скачать бесплатно и без рекламы последние новинки кино, игр, сериалов и прочего у нас, на Rutor.in. Не нужно использовать прокси, чтобы зайти на рутор, достаточно воспользоваться нашим ресурсом. Все новые фильмы, игры, сериалы, книги и музыка за 2013 и 2014 годы через торрент бесплатно. Скачивайте фильмы в хорошем качестве, игры для пк, xbox, playstation без регистрации. У нас вы найдете новые Зарубежные сериалы и Русские сериалы 2013, 2014, 2015 годов. Оставайтесь с нами, качайте любимые фильмы, игры, сериалы, книги и музыку.