img image001 image001 image001 image001 image001 image001 image001 image001 image001 image001 image001 image001 image001 image001 image001

Planets Sun Sun Sun
Статистика раздачи
Автор: PriZraK | Размер: 5.87 ГБ | Добавлен: 15 фев 2014
Раздают: 22    Качают: 4
Скачать торрент
Скачать торрент
Описание торрента

СообщениеДобавлено: 15 фев 2014 

XXII Зимние Олимпийские Игры 2014. Санный спорт. Мужчины. Двухместные сани. 1-я и 2-я попытки

Вид спорта: Санный спорт
Дата/Год выпуска: 12.02.14
Язык комментариев: русский

Автор записи: SashaR.

Качество: DVB-S2 Remux
Формат видео: TS
Видео: AVC, 1920x1080, 16:9, 15.2 Mbps, 25 fps
Аудио: MP2, 192 kbps, 48 kHz, 2 channels
J:ОлимпиадаСанный спорт. Мужчины. Двойки. 1-я и 2-я попытка (НТВ+).ts
General #6
ID : 6 (0x6)
Complete name : J:ОлимпиадаСанный спорт. Мужчины. Двойки. 1-я и 2-я попытка (НТВ+).ts
Format : MPEG-TS
File size : 5.87 GiB
Duration : 51mn 54s
Overall bit rate mode : Variable
Overall bit rate : 16.2 Mbps
Video #301
ID : 301 (0x12D)
Menu ID : 17101 (0x42CD)
Format : AVC
Format/Info : Advanced Video Codec
Codec ID : 27
Duration : 51mn 54s
Bit rate : 15.2 Mbps
Stream size : 5.51 GiB (94%)
Audio #401
ID : 401 (0x191)
Menu ID : 17101 (0x42CD)
Format : MPEG Audio
Format version : Version 1
Format profile : Layer 2
Codec ID : 4
Duration : 48ms
Bit rate mode : Constant
Bit rate : 192 Kbps
Channel count : 2 channels
Sampling rate : 48.0 KHz
Compression mode : Lossy
Stream size : 1.13 KiB (0%)
Language : Russian
Language, more info : Clean effects

00:51:54






   Похожие торренты   Торрент   Размер 
В этой теме нет новых непрочитанных сообщений. XXII Зимниe Олимпийскиe игры. Санный спорт. Мужчины. Двухместные сани [Первый HD] [12.02] (2014) HDTV 1080i

7 | 3

7.11 ГБ

В этой теме нет новых непрочитанных сообщений. XXII Зимние Олимпийские игры. Санный спорт. Женщины. 1-я и 2-я попытки [12.02] (2014) HDTV 1080i

14 | 4

5.42 ГБ

В этой теме нет новых непрочитанных сообщений. XXII Зимние Олимпийские игры. Санный спорт. Мужчины на одноместных санях, заезд 4 [HD Спорт] [09.02] (2014) HDTV 1080i

11 | 3

10.56 ГБ

В этой теме нет новых непрочитанных сообщений. XXII Зимние Олимпийские игры. Санный спорт. Женщины. 1, 2 попытки [Спорт] [09.02] (2014) IPTV

21 | 12

1.41 ГБ

В этой теме нет новых непрочитанных сообщений. XXII Зимние Олимпийские игры. Санный спорт. Мужики. 1, 2, 3, 4 попытки [Спорт] [09.02] (2014) IPTV

75 | 10

5.57 ГБ

В этой теме нет новых непрочитанных сообщений. XXII Зимние Олимпийские игры. Санный спорт. Эстафета [HD Спорт] [13.02] (2014) HDTV 1080i

11 | 9

6.42 ГБ

В этой теме нет новых непрочитанных сообщений. XXII Зимние Олимпийские игры. Санный спорт. Мужики. Вторая попытка [Спорт 1 HD] (2014) HDTV 1080i

35 | 5

2.5 ГБ




Вы не можете начинать темы
Вы не можете отвечать на сообщения
Вы не можете редактировать свои сообщения
Вы не можете удалять свои сообщения
Вы не можете добавлять вложения

Перейти:  
Для Мосгорсуда, Роскомнадзора и рекламодателей: mosgorsud-torrent[собачка]yandex.ru
 Вход
ppkBB3cker v.2 © 2008-2014 @ PPK
[ Time : 0.033s | 15 Queries | GZIP : Off ]

cron