img image001 image001 image001 image001 image001 image001 image001 image001 image001 image001 image001 image001 image001 image001 image001

Planets Sun Sun Sun
Статистика раздачи
Автор: PriZraK | Размер: 6.97 ГБ | Добавлен: 15 фев 2014
Раздают: 28    Качают: 17
Скачать торрент
Скачать торрент
Описание торрента

СообщениеДобавлено: 15 фев 2014 

XXII Зимние Олимпийские Игры 2014. Лыжные гонки. Мужчины. Гонка 15 км. Классический стиль

Вид спорта: Лыжные гонки
Комментарий: Профессиональный
Язык комментариев: Русский (Дмитрий Губерниев)
Описание: XXII Зимние Олимпийские Игры 2014. Лыжные гонки. Мужчины. Гонка 15 км. Классический стиль
Автор рипа: sanchez2011
Качество: HDTV
Формат: MPEG-TS
Видео кодек: AVC
Аудио кодек: MP2
Видео: MPEG4 Video (H264) 1920x1080 9145kbps 25fps
Аудио: MPEG Audio 48000Hz stereo 224kbps

Все результаты соревнований

Продолжительность: 01:41:16


General
ID : 1 (0x1)
Complete name : C:UsersadminDesktopXXII Зимние Олимпийские Игры 2014. 14.02.2014 Лыжные гонки. Мужчины. Гонка 15 км. Классический стиль.ts
Format : MPEG-TS
File size : 6.97 GiB
Duration : 1h 41mn
Overall bit rate mode : Variable
Overall bit rate : 9 859 Kbps

Video
ID : 1901 (0x76D)
Menu ID : 1 (0x1)
Format : AVC
Format/Info : Advanced Video Codec
Format profile : High@L4.0
Format settings, CABAC : Yes
Format settings, ReFrames : 3 frames
Codec ID : 27
Duration : 1h 41mn
Bit rate : 9 145 Kbps
Width : 1 920 pixels
Height : 1 080 pixels
Display aspect ratio : 16:9
Frame rate : 25.000 fps
Standard : Component
Color space : YUV
Chroma subsampling : 4:2:0
Bit depth : 8 bits
Scan type : Interlaced
Scan order : Top Field First
Bits/(Pixel*Frame) : 0.176
Stream size : 6.47 GiB (93%)
Color primaries : BT.709
Transfer characteristics : BT.709
Matrix coefficients : BT.709

Audio
ID : 2901 (0xB55)
Menu ID : 1 (0x1)
Format : MPEG Audio
Format version : Version 1
Format profile : Layer 2
Codec ID : 3
Duration : 1h 41mn
Bit rate mode : Constant
Bit rate : 224 Kbps
Channel(s) : 2 channels
Sampling rate : 48.0 KHz
Compression mode : Lossy
Stream size : 162 MiB (2%)
Language : Russian



   Похожие торренты   Торрент   Размер 
В этой теме нет новых непрочитанных сообщений. XXII Зимние Олимпийские игры. Лыжные гонки. Мужчина. Гонка 15 км. Классический стиль [HD Спорт] [14.02] (2014) HDTVRip

56 | 6

2.02 ГБ

В этой теме нет новых непрочитанных сообщений. XXII Зимние Олимпийские игры. Лыжные гонки. Женщины. Гонка 10 км. Классика [HD Спорт] [13.02] (2014) HDTV 1080i

0 | 2

11.06 ГБ

В этой теме нет новых непрочитанных сообщений. XXII Зимние Олимпийские игры. Лыжные гонки. Женщины. Гонка 10 км. Классика [Спорт 1 HD] [13.02] (2014) HDTV 1080i

7 | 4

5.98 ГБ

В этой теме нет новых непрочитанных сообщений. XXII зимние Олимпийские игры. Лыжные гонки. Мужчины. 50 км. Масс-старт [Россия HD] [23.02] (2014) HDTV 1080i

356 | 4

11.72 ГБ

В этой теме нет новых непрочитанных сообщений. XXII зимние Олимпийские игры. Лыжные гонки. Командный спринт. Мужчины, женщины. Финалы [Россия HD] [19.02] (2014) HDTV 1080i

35 | 13

5.02 ГБ

В этой теме нет новых непрочитанных сообщений. XXII Зимние Олимпийские игры. Лыжные гонки. Скиатлон. Женщины [Спорт 1 HD] [08.02] (2014) HDTV 1080i

4 | 4

1.85 ГБ

В этой теме нет новых непрочитанных сообщений. XXII Зимние Олимпийские игры. Лыжные гонки. Женщины. Эстафета 4х5км [HD Спорт] [15.02] (2014) HDTV 1080i

29 | 11

8.91 ГБ




Вы не можете начинать темы
Вы не можете отвечать на сообщения
Вы не можете редактировать свои сообщения
Вы не можете удалять свои сообщения
Вы не можете добавлять вложения

Перейти:  
Для Мосгорсуда, Роскомнадзора и рекламодателей: mosgorsud-torrent[собачка]yandex.ru
 Вход
ppkBB3cker v.2 © 2008-2014 @ PPK
[ Time : 2.560s | 15 Queries | GZIP : On ]

Торрент трекер RUTOR.IN, Не можете зайти на rutor.org? Какой новый адрес рутор? Какое зеркало рутор? Не работает rutor.org и зеркала? Тогда наш торрент специально для вас. Rutor.in неофициальное зеркало rutor. В случае если у Вас заблокирован rutor или вдруг Вы не можете на него зайти, то Вы без труда сможете скачать бесплатно и без рекламы последние новинки кино, игр, сериалов и прочего у нас, на Rutor.in. Не нужно использовать прокси, чтобы зайти на рутор, достаточно воспользоваться нашим ресурсом. Все новые фильмы, игры, сериалы, книги и музыка за 2013 и 2014 годы через торрент бесплатно. Скачивайте фильмы в хорошем качестве, игры для пк, xbox, playstation без регистрации. У нас вы найдете новые Зарубежные сериалы и Русские сериалы 2013, 2014, 2015 годов. Оставайтесь с нами, качайте любимые фильмы, игры, сериалы, книги и музыку.
cron