img image001 image001 image001 image001 image001 image001 image001 image001 image001 image001 image001 image001 image001 image001 image001

Planets Sun Sun Sun
Статистика раздачи
Автор: PriZraK | Размер: 1.77 ГБ | Добавлен: 15 фев 2014
Раздают: 44    Качают: 15
Скачать торрент
Скачать торрент
Описание торрента

СообщениеДобавлено: 15 фев 2014 

XXII Зимние Олимпийские Игры 2014. Горнолыжный спорт. Суперкомбинация. Скоростной спуск. Мужчины

Вид спорта: Горнолыжный спорт
Комментарий: Профессиональный
Язык комментариев: Русский (Тарас Тимошенко)
Описание: XXII Зимние Олимпийские Игры 2014. Горнолыжный спорт. Суперкомбинация. Скоростной спуск. Мужчины.
Автор рипа: sanchez2011
Качество: DVB
Формат: MPEG-TS
Видео кодек: AVC
Аудио кодек: MP2
Видео: MPEG4 Video (H264) 720x576 (4:3) 25fps 2600kbps
Аудио: MPEG Audio 48000Hz stereo 192kbps

Все результаты соревнований

Продолжительность: 01:26:37


General
ID : 1 (0x1)
Complete name : E:Олимпиада 2014XXII Зимние Олимпийские Игры 2014. 14.02.2014 Горнолыжный спорт. Суперкомбинация. Скоростной спуск. Мужчины.ts
Format : MPEG-TS
File size : 1.77 GiB
Duration : 1h 26mn
Overall bit rate mode : Variable
Overall bit rate : 2 923 Kbps

Video
ID : 1031 (0x407)
Menu ID : 1 (0x1)
Format : AVC
Format/Info : Advanced Video Codec
Format profile : Main@L3.0
Format settings, CABAC : Yes
Format settings, ReFrames : 3 frames
Codec ID : 27
Duration : 1h 26mn
Bit rate : 2 585 Kbps
Width : 720 pixels
Height : 576 pixels
Display aspect ratio : 4:3
Frame rate : 25.000 fps
Standard : Component
Color space : YUV
Chroma subsampling : 4:2:0
Bit depth : 8 bits
Scan type : Interlaced
Scan order : Top Field First
Bits/(Pixel*Frame) : 0.249
Stream size : 1.56 GiB (88%)
Color primaries : BT.601 PAL
Transfer characteristics : BT.470 System B, BT.470 System G
Matrix coefficients : BT.601

Audio
ID : 1032 (0x408)
Menu ID : 1 (0x1)
Format : MPEG Audio
Format version : Version 1
Format profile : Layer 2
Codec ID : 3
Duration : 1h 26mn
Bit rate mode : Constant
Bit rate : 192 Kbps
Channel(s) : 2 channels
Sampling rate : 48.0 KHz
Compression mode : Lossy
Stream size : 119 MiB (7%)
Language : English



   Похожие торренты   Торрент   Размер 
В этой теме нет новых непрочитанных сообщений. XXII Зимние Олимпийские игры. Горнолыжный спорт. Суперкомбинация. Скоростной спуск. Мужчины [Спортхит HD] [14.02] (2014) HDTV 1080i

41 | 5

4.23 ГБ

В этой теме нет новых непрочитанных сообщений. XXII Зимние Олимпийские игры. Горнолыжный спорт. Скоростной спуск. Мужчины [Россия 2] [09.02] (2014) SATRip от MediaClub

47 | 5

1.64 ГБ

В этой теме нет новых непрочитанных сообщений. XXII Зимние Олимпийские игры. Горнолыжный спорт. Скоростной спуск. Мужчины [Спорт 1 HD] [09.02] (2014) HDTV 1080i

39 | 5

10.47 ГБ

В этой теме нет новых непрочитанных сообщений. XXII Зимние Олимпийские игры. Горнолыжный спорт. Суперкомбинация. Слалом. Мужчины [Россия 2] [14.02] (2014) DVB

55 | 4

1.26 ГБ

В этой теме нет новых непрочитанных сообщений. XXII Зимние Олимпийские игры. Горнолыжный спорт. Суперкомбинация. Слалом. Мужчины [Спортхит HD] [14.02] (2014) HDTV 1080i

25 | 3

8.01 ГБ

В этой теме нет новых непрочитанных сообщений. XXII Зимние Олимпийские игры. Горные лыжи. Скоростной спуск. Мужчины [HD Спорт] [09.02] (2014) HDTV 1080i

23 | 4

6.29 ГБ

В этой теме нет новых непрочитанных сообщений. XXII Зимние Олимпийские игры. Горные лыжи. Женщины. Суперкомбинация. Скоростной спуск [Первый] [10.02] (2014) HDTV 1080i

22 | 2

6.12 ГБ




Вы не можете начинать темы
Вы не можете отвечать на сообщения
Вы не можете редактировать свои сообщения
Вы не можете удалять свои сообщения
Вы не можете добавлять вложения

Перейти:  
Для Мосгорсуда, Роскомнадзора и рекламодателей: mosgorsud-torrent[собачка]yandex.ru
 Вход
ppkBB3cker v.2 © 2008-2014 @ PPK
[ Time : 0.037s | 14 Queries | GZIP : Off ]

Торрент трекер RUTOR.IN, Не можете зайти на rutor.org? Какой новый адрес рутор? Какое зеркало рутор? Не работает rutor.org и зеркала? Тогда наш торрент специально для вас. Rutor.in неофициальное зеркало rutor. В случае если у Вас заблокирован rutor или вдруг Вы не можете на него зайти, то Вы без труда сможете скачать бесплатно и без рекламы последние новинки кино, игр, сериалов и прочего у нас, на Rutor.in. Не нужно использовать прокси, чтобы зайти на рутор, достаточно воспользоваться нашим ресурсом. Все новые фильмы, игры, сериалы, книги и музыка за 2013 и 2014 годы через торрент бесплатно. Скачивайте фильмы в хорошем качестве, игры для пк, xbox, playstation без регистрации. У нас вы найдете новые Зарубежные сериалы и Русские сериалы 2013, 2014, 2015 годов. Оставайтесь с нами, качайте любимые фильмы, игры, сериалы, книги и музыку.