img image001 image001 image001 image001 image001 image001 image001 image001 image001 image001 image001 image001 image001 image001 image001

Planets Sun Sun Sun
Статистика раздачи
Автор: PriZraK | Размер: 1.26 ГБ | Добавлен: 15 фев 2014
Раздают: 55    Качают: 4
Скачать торрент
Скачать торрент
Описание торрента

СообщениеДобавлено: 15 фев 2014 

XXII Зимние Олимпийские Игры 2014. Горнолыжный спорт. Суперкомбинация. Слалом. Мужчины

Вид спорта: Горнолыжный спорт
Комментарий: Профессиональный
Язык комментариев: Русский (Тарас Тимошенко)
Описание: XXII Зимние Олимпийские Игры 2014. Горнолыжный спорт. Суперкомбинация. Слалом. Мужчины.
Автор рипа: sanchez2011
Качество: DVB
Формат: MPEG-TS
Видео кодек: AVC
Аудио кодек: MP2
Видео: MPEG4 Video (H264) 720x576 (4:3) 25fps 2600kbps
Аудио: MPEG Audio 48000Hz stereo 192kbps

Все результаты соревнований

Продолжительность: 01:01:33


General
ID : 1 (0x1)
Complete name : E:Олимпиада 2014XXII Зимние Олимпийские Игры 2014. 14.02.2014 Горнолыжный спорт. Суперкомбинация. Слалом. Мужчины.ts
Format : MPEG-TS
File size : 1.26 GiB
Duration : 1h 1mn
Overall bit rate mode : Variable
Overall bit rate : 2 923 Kbps

Video
ID : 1031 (0x407)
Menu ID : 1 (0x1)
Format : AVC
Format/Info : Advanced Video Codec
Format profile : Main@L3.0
Format settings, CABAC : Yes
Format settings, ReFrames : 3 frames
Format settings, GOP : M=4, N=28
Codec ID : 27
Duration : 1h 1mn
Bit rate : 2 585 Kbps
Width : 720 pixels
Height : 576 pixels
Display aspect ratio : 4:3
Frame rate : 25.000 fps
Standard : Component
Color space : YUV
Chroma subsampling : 4:2:0
Bit depth : 8 bits
Scan type : Interlaced
Scan order : Top Field First
Bits/(Pixel*Frame) : 0.249
Stream size : 1.11 GiB (88%)
Color primaries : BT.601 PAL
Transfer characteristics : BT.470 System B, BT.470 System G
Matrix coefficients : BT.601

Audio
ID : 1032 (0x408)
Menu ID : 1 (0x1)
Format : MPEG Audio
Format version : Version 1
Format profile : Layer 2
Codec ID : 3
Duration : 1h 1mn
Bit rate mode : Constant
Bit rate : 192 Kbps
Channel(s) : 2 channels
Sampling rate : 48.0 KHz
Compression mode : Lossy
Stream size : 84.5 MiB (7%)
Language : English



   Похожие торренты   Торрент   Размер 
В этой теме нет новых непрочитанных сообщений. XXII Зимние Олимпийские игры. Горнолыжный спорт. Суперкомбинация. Слалом. Мужчины [Спортхит HD] [14.02] (2014) HDTV 1080i

25 | 3

8.01 ГБ

В этой теме нет новых непрочитанных сообщений. XXII Зимние Олимпийские игры. Горнолыжный спорт. Суперкомбинация. Скоростной спуск. Мужчины [Россия 2] [14.02] (2014) DVB

44 | 15

1.77 ГБ

В этой теме нет новых непрочитанных сообщений. XXII зимние Олимпийские игры. Горнолыжный спорт. Мужчины. Слалом. Заезд 1 [Спорт HD] [22.02] (2014) Stream 720p

10 | 2

1.93 ГБ

В этой теме нет новых непрочитанных сообщений. XXII Зимние Олимпийские игры. Горнолыжный спорт. Суперкомбинация. Скоростной спуск. Мужчины [Спортхит HD] [14.02] (2014) HDTV 1080i

41 | 5

4.23 ГБ

В этой теме нет новых непрочитанных сообщений. XXII зимние Олимпийские игры. Горнолыжный спорт. Мужчины. Гигантский слалом. 1-я попытка [HD Спорт] [19.02] (2014) HDTV 1080i

29 | 10

3.5 ГБ

В этой теме нет новых непрочитанных сообщений. XXII зимние Олимпийские игры. Горнолыжный спорт. Мужчины. Гигантский слалом. 2-я попытка [HD Спорт] [19.02] (2014) HDTV 1080i

36 | 6

5.31 ГБ

В этой теме нет новых непрочитанных сообщений. XXII зимние Олимпийские игры. Горнолыжный спорт. Мужчины. Слалом. Заезд 2 [22.02] (2014) Stream 720p

26 | 15

1.87 ГБ




Вы не можете начинать темы
Вы не можете отвечать на сообщения
Вы не можете редактировать свои сообщения
Вы не можете удалять свои сообщения
Вы не можете добавлять вложения

Перейти:  
Для Мосгорсуда, Роскомнадзора и рекламодателей: mosgorsud-torrent[собачка]yandex.ru
cron
 Вход
ppkBB3cker v.2 © 2008-2014 @ PPK
[ Time : 0.034s | 15 Queries | GZIP : Off ]

cron