img image001 image001 image001 image001 image001 image001 image001 image001 image001 image001 image001 image001 image001 image001 image001

Planets Sun Sun Sun
Статистика раздачи
Автор: PriZraK | Размер: 1.6 ГБ | Добавлен: 15 фев 2014
Раздают: 57    Качают: 13
Скачать торрент
Скачать торрент
Описание торрента

СообщениеДобавлено: 15 фев 2014 

XXII Зимние Олимпийские Игры 2014. Скелетон. Мужчины. 1-я попытка

Вид спорта: Скелетон
Комментарий: Профессиональный
Язык комментариев: Русский (Терехов)
Описание: XXII Зимние Олимпийские Игры 2014. Скелетон. Мужчины. 1-я попытка.
Автор рипа: sanchez2011
Качество: DVB
Формат: MPEG-PS
Видео кодек: MPEG2
Аудио кодек: MP2
Видео: MPEG2 Video 720x576 (16:9) 25fps 4000kbps
Аудио: MPEG Audio 48000Hz stereo 192kbps


Все результаты соревнований

Продолжительность: 00:54:55


General
Complete name : E:Олимпиада 2014XXII Зимние Олимпийские Игры 2014. 14.02.2014 Скелетон. Мужчины. 1-я попытка.mpg
Format : MPEG-PS
File size : 1.60 GiB
Duration : 54mn 55s
Overall bit rate mode : Variable
Overall bit rate : 4 166 Kbps

Video
ID : 224 (0xE0)
Format : MPEG Video
Format version : Version 2
Format profile : Main@Main
Format settings, BVOP : Yes
Format settings, Matrix : Custom
Format settings, GOP : Variable
Duration : 54mn 55s
Bit rate mode : Variable
Bit rate : 3 891 Kbps
Maximum bit rate : 15.0 Mbps
Width : 720 pixels
Height : 576 pixels
Display aspect ratio : 16:9
Frame rate : 25.000 fps
Standard : PAL
Color space : YUV
Chroma subsampling : 4:2:0
Bit depth : 8 bits
Scan type : Interlaced
Scan order : Top Field First
Compression mode : Lossy
Bits/(Pixel*Frame) : 0.375
Time code of first frame : 00:00:00:00
Time code source : Group of pictures header
Stream size : 1.49 GiB (93%)

Audio
ID : 192 (0xC0)
Format : MPEG Audio
Format version : Version 1
Format profile : Layer 2
Duration : 54mn 55s
Bit rate mode : Constant
Bit rate : 192 Kbps
Channel(s) : 2 channels
Sampling rate : 48.0 KHz
Compression mode : Lossy
Stream size : 75.4 MiB (5%)



   Похожие торренты   Торрент   Размер 
В этой теме нет новых непрочитанных сообщений. XXII Зимние Олимпийские игры. Скелетон. Женщины. 4-я попытка [HD Спорт] [14.02] (2014) HDTV 1080i

20 | 7

5.16 ГБ

В этой теме нет новых непрочитанных сообщений. XXII Зимние Олимпийские игры. Скелетон. Мужчины. 3-я и 4-я попытки [Россия 2] [15.02] (2014) DVB-AVC

104 | 48

2.27 ГБ

В этой теме нет новых непрочитанных сообщений. XXII Зимние Олимпийские игры. Скелетон. Мужчины. 3-я и 4-я попытки [Спортхит HD] [15.02] (2014) DVB

16 | 13

4.31 ГБ

В этой теме нет новых непрочитанных сообщений. XXII Зимние Олимпийские игры. Скелетон. Мужчины. 3-я и 4-я попытки [Спортхит HD] [15.02] (2014) HDTV 1080i

21 | 19

12.82 ГБ

В этой теме нет новых непрочитанных сообщений. XXII Зимние Олимпийские игры. Бобслей. Четверки. Мужчины [04 попытка] [Россия HD] [23.02] (2014) HDTV 1080i

6 | 4

2.59 ГБ

В этой теме нет новых непрочитанных сообщений. XXII зимние Олимпийские игры. Горные лыжи. Мужчины. Слалом. 2-я попытка [HD Спорт] [22.02] (2014) HDTV 1080i

10 | 3

5.28 ГБ

В этой теме нет новых непрочитанных сообщений. XXII зимние Олимпийские игры. Горные лыжи. Мужчины. Слалом. 1-я попытка [Спорт HD] [22.02] (2014) HDTV 1080i

12 | 8

6.02 ГБ




Вы не можете начинать темы
Вы не можете отвечать на сообщения
Вы не можете редактировать свои сообщения
Вы не можете удалять свои сообщения
Вы не можете добавлять вложения

Перейти:  
Для Мосгорсуда, Роскомнадзора и рекламодателей: mosgorsud-torrent[собачка]yandex.ru
 Вход
ppkBB3cker v.2 © 2008-2014 @ PPK
[ Time : 0.044s | 14 Queries | GZIP : Off ]

Торрент трекер RUTOR.IN, Не можете зайти на rutor.org? Какой новый адрес рутор? Какое зеркало рутор? Не работает rutor.org и зеркала? Тогда наш торрент специально для вас. Rutor.in неофициальное зеркало rutor. В случае если у Вас заблокирован rutor или вдруг Вы не можете на него зайти, то Вы без труда сможете скачать бесплатно и без рекламы последние новинки кино, игр, сериалов и прочего у нас, на Rutor.in. Не нужно использовать прокси, чтобы зайти на рутор, достаточно воспользоваться нашим ресурсом. Все новые фильмы, игры, сериалы, книги и музыка за 2013 и 2014 годы через торрент бесплатно. Скачивайте фильмы в хорошем качестве, игры для пк, xbox, playstation без регистрации. У нас вы найдете новые Зарубежные сериалы и Русские сериалы 2013, 2014, 2015 годов. Оставайтесь с нами, качайте любимые фильмы, игры, сериалы, книги и музыку.