img image001 image001 image001 image001 image001 image001 image001 image001 image001 image001 image001 image001 image001 image001 image001

Planets Sun Sun Sun
Статистика раздачи
Автор: PriZraK | Размер: 13.7 ГБ | Добавлен: 15 фев 2014
Раздают: 12    Качают: 7
Скачать торрент
Скачать торрент
Описание торрента

СообщениеДобавлено: 15 фев 2014 

XXII Зимние Олимпийские Игры 2014. Хоккей. Предварительный раунд. Мужчины. Группа А. Австрия - Финляндия



Вид спорта: Хоккей
Дата/Год выпуска: 13.02.14
Язык комментариев: русский

Автор записи: SashaR.

Качество: DVB-S2 Remux
Формат видео: TS
Видео: AVC, 1920x1080, 16:9, 15.2 Mbps, 25 fps
Аудио: MP2, 192 kbps, 48 kHz, 2 channels
J:ОлимпиадаХоккей. Предварительный раунд. Мужчины. Группа А. Австрия - Финляндия (НТВ+).ts
General #6
ID : 6 (0x6)
Complete name : J:ОлимпиадаХоккей. Предварительный раунд. Мужчины. Группа А. Австрия - Финляндия (НТВ+).ts
Format : MPEG-TS
File size : 13.7 GiB
Duration : 2h 1mn
Overall bit rate mode : Variable
Overall bit rate : 16.2 Mbps
Video #301
ID : 301 (0x12D)
Menu ID : 17101 (0x42CD)
Format : AVC
Format/Info : Advanced Video Codec
Format profile : High@L4.0
Format settings, CABAC : Yes
Format settings, ReFrames : 3 frames
Codec ID : 27
Duration : 2h 1mn
Bit rate : 15.2 Mbps
Width : 1 920 pixels
Height : 1 080 pixels
Display aspect ratio : 16:9
Frame rate : 25.000 fps
Standard : Component
Color space : YUV
Chroma subsampling : 4:2:0
Bit depth : 8 bits
Scan type : Interlaced
Scan order : Top Field First
Bits/(Pixel*Frame) : 0.293
Stream size : 12.9 GiB (94%)
Color primaries : BT.709
Transfer characteristics : BT.709
Matrix coefficients : BT.709
Audio #401
ID : 401 (0x191)
Menu ID : 17101 (0x42CD)
Format : MPEG Audio
Format version : Version 1
Format profile : Layer 2
Codec ID : 4
Duration : 2h 1mn
Bit rate mode : Constant
Bit rate : 192 Kbps
Channel count : 2 channels
Sampling rate : 48.0 KHz
Compression mode : Lossy
Delay relative to video : 95ms
Stream size : 167 MiB (1%)
Language : Russian
Language, more info : Clean effects

02:01:17






   Похожие торренты   Торрент   Размер 
В этой теме нет новых непрочитанных сообщений. XXII Зимние Олимпийские игры. Хоккей. Предварительный раунд. Мужчины. Группа B. Финляндия - Австрия [Спорт] [13.02] (2014) IPTVRip

71 | 8

1.26 ГБ

В этой теме нет новых непрочитанных сообщений. XXII Зимние Олимпийские игры. Хоккей. Предварительный раунд. Мужчины. Группа В. Канада - Австрия [NovaSportHD] [14.02] (2014) HDTV 1080i

336 | 75

9.48 ГБ

В этой теме нет новых непрочитанных сообщений. XXII Зимние Олимпийские игры. Хоккей. Предварительный раунд. Мужчины. Группа А. Словакия - США [НТВ+] [13.02] (2014) HDTV 1080i

25 | 13

11.19 ГБ

В этой теме нет новых непрочитанных сообщений. XXII Зимние Олимпийские игры. Хоккей. Предварительный раунд. Мужчины. Группа С. Чехия - Латвия [НТВ+] [14.02] (2014) HDTV 1080i

34 | 4

13.32 ГБ

В этой теме нет новых непрочитанных сообщений. XXII Зимние Олимпийские игры. Хоккей. Предварительный раунд. Женщины. Группа В. Россия - Япония [HD Спорт] [11.02] (2014) HDTV 1080i

4 | 14

12.64 ГБ

В этой теме нет новых непрочитанных сообщений. XXII Зимние Олимпийские игры. Хоккей. Предварительный раунд. Женщины. Группа В. Россия - Швеция [HD Спорт] [13.02] (2014) HDTV 1080i

13 | 3

11.84 ГБ

В этой теме нет новых непрочитанных сообщений. XXII Зимние Олимпийские игры. Хоккей. Предварительный раунд. Мужчины. Группа А. Словакия - США [Спорт] [13.02] (2014) IPTVRip

81 | 8

1.37 ГБ




Вы не можете начинать темы
Вы не можете отвечать на сообщения
Вы не можете редактировать свои сообщения
Вы не можете удалять свои сообщения
Вы не можете добавлять вложения

Перейти:  
Для Мосгорсуда, Роскомнадзора и рекламодателей: mosgorsud-torrent[собачка]yandex.ru
 Вход
ppkBB3cker v.2 © 2008-2014 @ PPK
[ Time : 0.047s | 16 Queries | GZIP : Off ]

cron