img image001 image001 image001 image001 image001 image001 image001 image001 image001 image001 image001 image001 image001 image001 image001

Planets Sun Sun Sun
Статистика раздачи
Автор: Nickolas3434 | Размер: 24.62 ГБ | Добавлен: 17 фев 2014
Раздают: 31    Качают: 81
Скачать торрент
Скачать торрент
Описание торрента

СообщениеДобавлено: 17 фев 2014 

XXII Зимние Олимпийские Игры 2014. Прыжки на лыжах с трамплина. Мужчины. Личный старт

Вид спорта: Прыжки на лыжах с трамплина
Дата/Год выпуска: 15.02.14
Язык комментариев: русский

Автор записи: SashaR.

Качество: DVB-S2 Remux
Формат видео: TS
Видео: AVC, 1920x1080, 16:9, 15.2 Mbps, 25 fps
Аудио: MP2, 192 kbps, 48 kHz, 2 channels
G:ОлимпиадаПрыжки с трамплина. Мужчины. LH (НТВ+)Прыжки с трамплина. Мужчины. 1-я и 2-я попытка LH (НТВ+).ts
General #6
ID : 6 (0x6)
Complete name : G:ОлимпиадаПрыжки с трамплина. Мужчины. LH (НТВ+)Прыжки с трамплина. Мужчины. 1-я и 2-я попытка LH (НТВ+).ts
Format : MPEG-TS
File size : 16.5 GiB
Duration : 2h 26mn
Overall bit rate mode : Variable
Overall bit rate : 16.2 Mbps
Video #301
ID : 301 (0x12D)
Menu ID : 17101 (0x42CD)
Format : AVC
Format/Info : Advanced Video Codec
Format profile : High@L4.0
Format settings, CABAC : Yes
Format settings, ReFrames : 3 frames
Codec ID : 27
Duration : 2h 26mn
Bit rate : 15.2 Mbps
Width : 1 920 pixels
Height : 1 080 pixels
Display aspect ratio : 16:9
Frame rate : 25.000 fps
Standard : Component
Color space : YUV
Chroma subsampling : 4:2:0
Bit depth : 8 bits
Scan type : Interlaced
Scan order : Top Field First
Bits/(Pixel*Frame) : 0.293
Stream size : 15.5 GiB (94%)
Color primaries : BT.709
Transfer characteristics : BT.709
Matrix coefficients : BT.709
Audio #401
ID : 401 (0x191)
Menu ID : 17101 (0x42CD)
Format : MPEG Audio
Format version : Version 1
Format profile : Layer 2
Codec ID : 4
Duration : 2h 26mn
Bit rate mode : Constant
Bit rate : 192 Kbps
Channel count : 2 channels
Sampling rate : 48.0 KHz
Compression mode : Lossy
Delay relative to video : 48ms
Stream size : 201 MiB (1%)
Language : Russian
Language, more info : Clean effects

Прыжки с трамплина. Мужчины. Квалификация LH (НТВ+) - 01:11:31
Прыжки с трамплина. Мужчины. 1-я и 2-я попытка LH (НТВ+) - 02:26:03






   Похожие торренты   Торрент   Размер 
В этой теме нет новых непрочитанных сообщений. XXII Зимние Олимпийские игры. Прыжки на лыжах с трамплина. Личный старт. Большой трамплин [Спортхит] [15.02] (2014) DVB

50 | 36

5.81 ГБ

В этой теме нет новых непрочитанных сообщений. XXII Зимние Олимпийские игры. Прыжки на лыжах с трамплина. Личный старт. Большой трамплин [Спортхит] [14.02] (2014) DVB

50 | 5

2.5 ГБ

В этой теме нет новых непрочитанных сообщений. XXII Зимние Олимпийские игры. Прыжки на лыжах с трамплина. Личный старт. Большой трамплин [Первый HD] [15.02] (2014) HDTV 1080i

27 | 30

10.29 ГБ

В этой теме нет новых непрочитанных сообщений. XXII зимние Олимпийские игры. Прыжки на лыжах с трамплина. Мужчины. К 125. Ком соревнования [Спорт 1 HD, ORF 1 HD ] [17.02] (2014) HDTV 1080i

7 | 10

19.8 ГБ

В этой теме нет новых непрочитанных сообщений. XXII зимние Олимпийские игры. Лыжное двоеборье. Мужчины. Личный старт. Большой трамплин [Первый HD] [18.02] (2014) HDTV 1080i

26 | 8

5.66 ГБ

В этой теме нет новых непрочитанных сообщений. XXII зимние Олимпийские игры. Лыжное двоеборье. Мужчины. Личный старт. Масс-старт 10 км [Первый HD] [18.02] (2014) HDTV 1080i

20 | 5

3.21 ГБ

В этой теме нет новых непрочитанных сообщений. XXII зимние Олимпийские игры. Прыжки на лыжах с трамплина. Мужчины. Командные соревнования [Россия 2] [17.02] (2014) DVB

56 | 46

2.08 ГБ




Вы не можете начинать темы
Вы не можете отвечать на сообщения
Вы не можете редактировать свои сообщения
Вы не можете удалять свои сообщения
Вы не можете добавлять вложения

Перейти:  
Для Мосгорсуда, Роскомнадзора и рекламодателей: mosgorsud-torrent[собачка]yandex.ru
 Вход
ppkBB3cker v.2 © 2008-2014 @ PPK
[ Time : 0.048s | 14 Queries | GZIP : Off ]

Торрент трекер RUTOR.IN, Не можете зайти на rutor.org? Какой новый адрес рутор? Какое зеркало рутор? Не работает rutor.org и зеркала? Тогда наш торрент специально для вас. Rutor.in неофициальное зеркало rutor. В случае если у Вас заблокирован rutor или вдруг Вы не можете на него зайти, то Вы без труда сможете скачать бесплатно и без рекламы последние новинки кино, игр, сериалов и прочего у нас, на Rutor.in. Не нужно использовать прокси, чтобы зайти на рутор, достаточно воспользоваться нашим ресурсом. Все новые фильмы, игры, сериалы, книги и музыка за 2013 и 2014 годы через торрент бесплатно. Скачивайте фильмы в хорошем качестве, игры для пк, xbox, playstation без регистрации. У нас вы найдете новые Зарубежные сериалы и Русские сериалы 2013, 2014, 2015 годов. Оставайтесь с нами, качайте любимые фильмы, игры, сериалы, книги и музыку.