img image001 image001 image001 image001 image001 image001 image001 image001 image001 image001 image001 image001 image001 image001 image001

Planets Sun Sun Sun
Статистика раздачи
Автор: Nickolas3434 | Размер: 6.06 ГБ | Добавлен: 17 фев 2014
Раздают: 10    Качают: 18
Скачать торрент
Скачать торрент
Описание торрента

СообщениеДобавлено: 17 фев 2014 

XXII Зимние Олимпийские Игры 2014. Конькобежный спорт. Мужчины 1500 м

Вид спорта: Конькобежный спорт
Комментарий: Профессиональный
Язык комментариев: Русский
Описание: XXII Зимние Олимпийские Игры 2014. Конькобежный спорт. Мужчины 1500 м.

Автор рипа: sanchez2011

Качество: HDTV
Формат: MPEG-TS
Видео кодек: AVC
Аудио кодек: MP2
Видео: MPEG4 Video (H264) 1920x1080 8969kbps 25fps
Аудио: MPEG Audio 48000Hz stereo 224kbps

Все результаты соревнований

Продолжительность: 01:29:45


General
ID : 1 (0x1)
Complete name : E:Олимпиада 2014XXII Зимние Олимпийские Игры 2014. 15.02.2014 Конькобежный спорт. Мужчины 1500 м.ts
Format : MPEG-TS
File size : 6.06 GiB
Duration : 1h 29mn
Overall bit rate mode : Variable
Overall bit rate : 9 674 Kbps

Video
ID : 1901 (0x76D)
Menu ID : 1 (0x1)
Format : AVC
Format/Info : Advanced Video Codec
Format profile : High@L4.0
Format settings, CABAC : Yes
Format settings, ReFrames : 3 frames
Codec ID : 27
Duration : 1h 29mn
Bit rate : 8 969 Kbps
Width : 1 920 pixels
Height : 1 080 pixels
Display aspect ratio : 16:9
Frame rate : 25.000 fps
Standard : Component
Color space : YUV
Chroma subsampling : 4:2:0
Bit depth : 8 bits
Scan type : Interlaced
Scan order : Top Field First
Bits/(Pixel*Frame) : 0.173
Stream size : 5.62 GiB (93%)
Color primaries : BT.709
Transfer characteristics : BT.709
Matrix coefficients : BT.709

Audio
ID : 2901 (0xB55)
Menu ID : 1 (0x1)
Format : MPEG Audio
Format version : Version 1
Format profile : Layer 2
Codec ID : 3
Duration : 1h 29mn
Bit rate mode : Constant
Bit rate : 224 Kbps
Channel(s) : 2 channels
Sampling rate : 48.0 KHz
Compression mode : Lossy
Stream size : 144 MiB (2%)
Language : Russian



   Похожие торренты   Торрент   Размер 
В этой теме нет новых непрочитанных сообщений. XXII Зимние Олимпийские игры. Скоростной бег на коньках. Мужчины 1500 м [HD Спорт] [15.02] (2014) HDTV 1080i

2 | 4

13.47 ГБ

В этой теме нет новых непрочитанных сообщений. XXII зимние Олимпийские игры. Скоростной бег на коньках. Мужчины, 1500 метров [Спортхит] [15.02] (2014) DVB

10 | 4

2.04 ГБ

В этой теме нет новых непрочитанных сообщений. XXII Зимние Олимпийские игры. Скоростной бег на коньках. Мужчины 1500 м [HD Спорт] [15.02] (2014) Stream 720р

95 | 29

2.09 ГБ

В этой теме нет новых непрочитанных сообщений. XXII Зимние Олимпийские игры. Скоростной бег на коньках. Мужчины. 500 м. Забег 2 из 2 [Спортхит HD] [10.02] (2014) HDTV 1080i

17 | 4

12.31 ГБ

В этой теме нет новых непрочитанных сообщений. XXII Зимние Олимпийские игры. Скоростной бег на коньках. Мужчины. 500 м. Забег 2 из 2 [Россия 2, Россия 1] [10.02] (2014) SATRip

115 | 11

1.64 ГБ

В этой теме нет новых непрочитанных сообщений. XXII Зимние Олимпийские игры. Шорт-трек. Мужчины 1000 м. Женщины 1500 м. Финалы [HD Спорт] [15.02] (2014) HDTV 1080i

21 | 17

9.82 ГБ

В этой теме нет новых непрочитанных сообщений. XXII Зимние Олимпийские игры. Горные лыжи. Скоростной спуск. Мужчины [HD Спорт] [09.02] (2014) HDTV 1080i

23 | 4

6.29 ГБ




Вы не можете начинать темы
Вы не можете отвечать на сообщения
Вы не можете редактировать свои сообщения
Вы не можете удалять свои сообщения
Вы не можете добавлять вложения

Перейти:  
Для Мосгорсуда, Роскомнадзора и рекламодателей: mosgorsud-torrent[собачка]yandex.ru
 Вход
ppkBB3cker v.2 © 2008-2014 @ PPK
[ Time : 0.038s | 14 Queries | GZIP : Off ]

Торрент трекер RUTOR.IN, Не можете зайти на rutor.org? Какой новый адрес рутор? Какое зеркало рутор? Не работает rutor.org и зеркала? Тогда наш торрент специально для вас. Rutor.in неофициальное зеркало rutor. В случае если у Вас заблокирован rutor или вдруг Вы не можете на него зайти, то Вы без труда сможете скачать бесплатно и без рекламы последние новинки кино, игр, сериалов и прочего у нас, на Rutor.in. Не нужно использовать прокси, чтобы зайти на рутор, достаточно воспользоваться нашим ресурсом. Все новые фильмы, игры, сериалы, книги и музыка за 2013 и 2014 годы через торрент бесплатно. Скачивайте фильмы в хорошем качестве, игры для пк, xbox, playstation без регистрации. У нас вы найдете новые Зарубежные сериалы и Русские сериалы 2013, 2014, 2015 годов. Оставайтесь с нами, качайте любимые фильмы, игры, сериалы, книги и музыку.