img image001 image001 image001 image001 image001 image001 image001 image001 image001 image001 image001 image001 image001 image001 image001

Planets Sun Sun Sun
Статистика раздачи
Автор: Nickolas3434 | Размер: 12.07 ГБ | Добавлен: 17 фев 2014
Раздают: 6    Качают: 8
Скачать торрент
Скачать торрент
Описание торрента

СообщениеДобавлено: 17 фев 2014 

XXII Зимние Олимпийские Игры 2014 / Хоккей / Плей-офф / Четвертьфинал / Женщины / Швейцария - Россия

Вид спорта: Хоккей
Дата/Год выпуска: 15.02.14
Язык комментариев: русский

Автор записи: SashaR.

Качество: DVB-S2 Remux
Формат видео: TS
Видео: AVC, 1920x1080, 16:9, 15.2 Mbps, 25 fps
Аудио: MP2, 192 kbps, 48 kHz, 2 channels
G:ОлимпиадаХоккей. Плей-офф. Четвертьфинал. Женщины. Швейцария - Россия (НТВ+).ts
General #6
ID : 6 (0x6)
Complete name : G:ОлимпиадаХоккей. Плей-офф. Четвертьфинал. Женщины. Швейцария - Россия (НТВ+).ts
Format : MPEG-TS
File size : 12.1 GiB
Duration : 1h 46mn
Overall bit rate : 16.2 Mbps
Video #301
ID : 301 (0x12D)
Menu ID : 17101 (0x42CD)
Format : AVC
Format/Info : Advanced Video Codec
Codec ID : 27
Duration : 1h 46mn
Bit rate : 15.2 Mbps
Stream size : 11.3 GiB (94%)
Audio #401
ID : 401 (0x191)
Menu ID : 17101 (0x42CD)
Format : MPEG Audio
Format version : Version 1
Format profile : Layer 2
Codec ID : 4
Duration : 48ms
Bit rate mode : Constant
Bit rate : 192 Kbps
Channel count : 2 channels
Sampling rate : 48.0 KHz
Compression mode : Lossy
Stream size : 1.13 KiB (0%)
Language : Russian
Language, more info : Clean effects

01:46:40






   Похожие торренты   Торрент   Размер 
В этой теме нет новых непрочитанных сообщений. XXII Зимние Олимпийские игры. Хоккей. Плей-офф. Четвертьфинал. Женщины. Швеция - Финляндия [Спортхит] [15.02] (2014) DVB

4 | 11

4.15 ГБ

В этой теме нет новых непрочитанных сообщений. XXII Зимние Олимпийские игры. Хоккей. Женщины. Полуфинал. Канада - Швейцария [Спортхит HD] [17.02] (2014) HDTV 1080i

17 | 7

12.57 ГБ

В этой теме нет новых непрочитанных сообщений. XXII Зимние Олимпийские игры. Хоккей. Мужчины. Группа С. Латвия - Швейцария [Спортхит HD] [12.02] (2014) HDTV 1080i

3 | 5

11.95 ГБ

В этой теме нет новых непрочитанных сообщений. XXII Зимние Олимпийские игры. Хоккей. Мужчины. Группа A. США - Россия [Спортхит HD] [15.02] (2014) HDTV 1080i

43 | 33

20.72 ГБ

В этой теме нет новых непрочитанных сообщений. XXII Зимние Олимпийские игры. Кёрлинг. Круговой этап. 10-й тур. Женщины. Россия - Швеция [Спортхит HD] [16.02] (2014) HDTV 1080i

13 | 37

15.59 ГБ

В этой теме нет новых непрочитанных сообщений. XXII Зимние Олимпийские игры. Кёрлинг. Круговой этап. 11-й тур. Женщины. Россия - Швеция [Спортхит HD] [17.02] (2014) HDTV 1080i

14 | 12

21.17 ГБ

В этой теме нет новых непрочитанных сообщений. XXII зимние Олимпийские игры. Сноуборд-кросс. Четвертьфинал. Полуфинал. Финал [СпортХит HD] [17.02] (2014) HDTV 1080i

59 | 25

11.22 ГБ




Вы не можете начинать темы
Вы не можете отвечать на сообщения
Вы не можете редактировать свои сообщения
Вы не можете удалять свои сообщения
Вы не можете добавлять вложения

Перейти:  
Для Мосгорсуда, Роскомнадзора и рекламодателей: mosgorsud-torrent[собачка]yandex.ru
 Вход
ppkBB3cker v.2 © 2008-2014 @ PPK
[ Time : 0.029s | 14 Queries | GZIP : Off ]

Торрент трекер RUTOR.IN, Не можете зайти на rutor.org? Какой новый адрес рутор? Какое зеркало рутор? Не работает rutor.org и зеркала? Тогда наш торрент специально для вас. Rutor.in неофициальное зеркало rutor. В случае если у Вас заблокирован rutor или вдруг Вы не можете на него зайти, то Вы без труда сможете скачать бесплатно и без рекламы последние новинки кино, игр, сериалов и прочего у нас, на Rutor.in. Не нужно использовать прокси, чтобы зайти на рутор, достаточно воспользоваться нашим ресурсом. Все новые фильмы, игры, сериалы, книги и музыка за 2013 и 2014 годы через торрент бесплатно. Скачивайте фильмы в хорошем качестве, игры для пк, xbox, playstation без регистрации. У нас вы найдете новые Зарубежные сериалы и Русские сериалы 2013, 2014, 2015 годов. Оставайтесь с нами, качайте любимые фильмы, игры, сериалы, книги и музыку.