img image001 image001 image001 image001 image001 image001 image001 image001 image001 image001 image001 image001 image001 image001 image001

Planets Sun Sun Sun
Статистика раздачи
Автор: Nickolas3434 | Размер: 15.59 ГБ | Добавлен: 18 фев 2014
Раздают: 13    Качают: 37
Скачать торрент
Скачать торрент
Описание торрента

СообщениеДобавлено: 18 фев 2014 

XXII Зимние Олимпийские Игры 2014. Кёрлинг. Круговой этап. Сессия 10. Женщины. Россия - Швеция

Вид спорта: Кёрлинг
Дата/Год выпуска: 16.02.14
Язык комментариев: русский

Автор записи: SashaR.

Качество: HDTV
Формат видео: TS
Видео: AVC, 1920x1080, 16:9, 15.2 Mbps, 25 fps
Аудио: MP2, 192 kbps, 48 kHz, 2 channels
G:ОлимпиадаКёрлинг. Круговой этап. Сессия 10. Женщины. Россия - Швеция (НТВ+).ts
General #6
ID : 6 (0x6)
Complete name : G:ОлимпиадаКёрлинг. Круговой этап. Сессия 10. Женщины. Россия - Швеция (НТВ+).ts
Format : MPEG-TS
File size : 15.6 GiB
Duration : 2h 18mn
Overall bit rate mode : Variable
Overall bit rate : 16.1 Mbps
Video #301
ID : 301 (0x12D)
Menu ID : 17101 (0x42CD)
Format : AVC
Format/Info : Advanced Video Codec
Format profile : High@L4.0
Format settings, CABAC : Yes
Format settings, ReFrames : 3 frames
Codec ID : 27
Duration : 2h 18mn
Bit rate : 15.2 Mbps
Width : 1 920 pixels
Height : 1 080 pixels
Display aspect ratio : 16:9
Frame rate : 25.000 fps
Standard : Component
Color space : YUV
Chroma subsampling : 4:2:0
Bit depth : 8 bits
Scan type : Interlaced
Scan order : Top Field First
Bits/(Pixel*Frame) : 0.292
Stream size : 14.6 GiB (94%)
Color primaries : BT.709
Transfer characteristics : BT.709
Matrix coefficients : BT.709
Audio #401
ID : 401 (0x191)
Menu ID : 17101 (0x42CD)
Format : MPEG Audio
Format version : Version 1
Format profile : Layer 2
Codec ID : 4
Duration : 2h 18mn
Bit rate mode : Constant
Bit rate : 192 Kbps
Channel count : 2 channels
Sampling rate : 48.0 KHz
Compression mode : Lossy
Delay relative to video : 31ms
Stream size : 190 MiB (1%)
Language : Russian
Language, more info : Clean effects

02:18:14






   Похожие торренты   Торрент   Размер 
В этой теме нет новых непрочитанных сообщений. XXII Зимние Олимпийские игры. Кёрлинг. Круговой этап. 11-й тур. Женщины. Россия - Швеция [Спортхит HD] [17.02] (2014) HDTV 1080i

14 | 12

21.17 ГБ

В этой теме нет новых непрочитанных сообщений. XXII зимние Олимпийские игры. Кёрлинг. Круговой этап. Женщины. Россия - Великобритания [Спортхит] [17.02] (2014) HDTVRip

17 | 11

1.76 ГБ

В этой теме нет новых непрочитанных сообщений. XXII Зимние Олимпийские игры. Кёрлинг. Круговой этап. Сессия 6. Женщины. Россия - Корея [Спортхит] [13.02] (2014) DVB

26 | 10

4.01 ГБ

В этой теме нет новых непрочитанных сообщений. XXII зимние Олимпийские игры. Кёрлинг. Круговой этап. Сессия 10. Женщины. Россия - Швеция [Первый] DVB[16.02] (2014)

13 | 40

1.83 ГБ

В этой теме нет новых непрочитанных сообщений. XXII Зимние Олимпийские игры. Кёрлинг. Круговой этап. 9-й тур. Женщины. Канада - Россия [Первый HD] [15.02] (2014) HDTV 1080i

27 | 11

7.35 ГБ

В этой теме нет новых непрочитанных сообщений. XXII Зимние Олимпийские игры. Кёрлинг. Круговой этап. 7-й тур. Женщины. Россия - Швейцария [HD Спорт] [14.02] (2014) HDTV 1080i

38 | 8

8.43 ГБ

В этой теме нет новых непрочитанных сообщений. XXII Зимние Олимпийские игры. Кёрлинг. Круговой этап. Сессия 5. Женщины. Канада - Дания [Спортхит] [13.02] (2014) DVB

39 | 17

6.47 ГБ




Вы не можете начинать темы
Вы не можете отвечать на сообщения
Вы не можете редактировать свои сообщения
Вы не можете удалять свои сообщения
Вы не можете добавлять вложения

Перейти:  
Для Мосгорсуда, Роскомнадзора и рекламодателей: mosgorsud-torrent[собачка]yandex.ru
 Вход
ppkBB3cker v.2 © 2008-2014 @ PPK
[ Time : 0.051s | 15 Queries | GZIP : Off ]

cron