img image001 image001 image001 image001 image001 image001 image001 image001 image001 image001 image001 image001 image001 image001 image001

Planets Sun Sun Sun
Статистика раздачи
Автор: Nickolas3434 | Размер: 2.08 ГБ | Добавлен: 18 фев 2014
Раздают: 56    Качают: 46
Скачать торрент
Скачать торрент
Описание торрента

СообщениеДобавлено: 18 фев 2014 

XXII Зимние Олимпийские Игры 2014. Прыжки на лыжах с трамплина. Мужчины. Командные соревнования

Вид спорта: Прыжки на лыжах с трамплина
Комментарий: Профессиональный
Язык комментариев: Русский (Тарас Тимошенко)
Описание: XXII Зимние Олимпийские Игры 2014. Прыжки на лыжах с трамплина. Мужчины. Командные соревнования.
Автор рипа: sanchez2011
Качество: DVB
Формат: MPEG-TS
Видео кодек: AVC
Аудио кодек: MP2
Видео: MPEG4 Video (H264) 720x576 (4:3) 25fps 2600kbps
Аудио: MPEG Audio 48000Hz stereo 192kbps

Все результаты соревнований

Продолжительность: 01:41:44


General
ID : 1 (0x1)
Complete name : E:Олимпиада 2014XXII Зимние Олимпийские Игры 2014. 17.02.2014 Прыжки на лыжах с трамплина.ts
Format : MPEG-TS
File size : 2.08 GiB
Duration : 1h 41mn
Overall bit rate mode : Variable
Overall bit rate : 2 926 Kbps

Video
ID : 1031 (0x407)
Menu ID : 1 (0x1)
Format : AVC
Format/Info : Advanced Video Codec
Format profile : Main@L3.0
Format settings, CABAC : Yes
Format settings, ReFrames : 3 frames
Format settings, GOP : M=4, N=28
Codec ID : 27
Duration : 1h 41mn
Bit rate : 2 587 Kbps
Width : 720 pixels
Height : 576 pixels
Display aspect ratio : 4:3
Frame rate : 25.000 fps
Standard : Component
Color space : YUV
Chroma subsampling : 4:2:0
Bit depth : 8 bits
Scan type : Interlaced
Scan order : Top Field First
Bits/(Pixel*Frame) : 0.250
Stream size : 1.84 GiB (88%)
Color primaries : BT.601 PAL
Transfer characteristics : BT.470 System B, BT.470 System G
Matrix coefficients : BT.601

Audio
ID : 1032 (0x408)
Menu ID : 1 (0x1)
Format : MPEG Audio
Format version : Version 1
Format profile : Layer 2
Codec ID : 3
Duration : 1h 41mn
Bit rate mode : Constant
Bit rate : 192 Kbps
Channel(s) : 2 channels
Sampling rate : 48.0 KHz
Compression mode : Lossy
Stream size : 140 MiB (7%)
Language : English



   Похожие торренты   Торрент   Размер 
В этой теме нет новых непрочитанных сообщений. XXII зимние Олимпийские игры. Прыжки на лыжах с трамплина. Мужчины. К 125. Ком соревнования [Спорт 1 HD, ORF 1 HD ] [17.02] (2014) HDTV 1080i

7 | 10

19.8 ГБ

В этой теме нет новых непрочитанных сообщений. XXII Зимние Олимпийские игры. Прыжки с трамплина. К95. Мужчины [01-02] [Россия 2] [09.02] (2014) SATRip от MediaClub

118 | 8

1.35 ГБ

В этой теме нет новых непрочитанных сообщений. XXII Зимние Олимпийские игры. Прыжки на лыжах с трамплина. Личный старт. Большой трамплин [Спортхит] [14.02] (2014) DVB

50 | 5

2.5 ГБ

В этой теме нет новых непрочитанных сообщений. XXII Зимние Олимпийские игры. Прыжки на лыжах с трамплина. Личный старт. Большой трамплин [Спортхит] [15.02] (2014) DVB

50 | 36

5.81 ГБ

В этой теме нет новых непрочитанных сообщений. XXII Зимние Олимпийские игры. Прыжки на лыжах с трамплина. Личный старт. Большой трамплин [Спортхит HD] [15.02] (2014) HDTV 1080i

31 | 81

24.62 ГБ

В этой теме нет новых непрочитанных сообщений. XXII Зимние Олимпийские игры. Прыжки на лыжах с трамплина. Личный старт. Большой трамплин [Первый HD] [15.02] (2014) HDTV 1080i

27 | 30

10.29 ГБ

В этой теме нет новых непрочитанных сообщений. XXII Зимние Олимпийские игры. Прыжки с трамплина. К95. Мужчины [HD Спорт] [10.02] (2014) HDTV 1080i

29 | 7

11.92 ГБ




Вы не можете начинать темы
Вы не можете отвечать на сообщения
Вы не можете редактировать свои сообщения
Вы не можете удалять свои сообщения
Вы не можете добавлять вложения

Перейти:  
Для Мосгорсуда, Роскомнадзора и рекламодателей: mosgorsud-torrent[собачка]yandex.ru
 Вход
ppkBB3cker v.2 © 2008-2014 @ PPK
[ Time : 0.097s | 14 Queries | GZIP : Off ]

Торрент трекер RUTOR.IN, Не можете зайти на rutor.org? Какой новый адрес рутор? Какое зеркало рутор? Не работает rutor.org и зеркала? Тогда наш торрент специально для вас. Rutor.in неофициальное зеркало rutor. В случае если у Вас заблокирован rutor или вдруг Вы не можете на него зайти, то Вы без труда сможете скачать бесплатно и без рекламы последние новинки кино, игр, сериалов и прочего у нас, на Rutor.in. Не нужно использовать прокси, чтобы зайти на рутор, достаточно воспользоваться нашим ресурсом. Все новые фильмы, игры, сериалы, книги и музыка за 2013 и 2014 годы через торрент бесплатно. Скачивайте фильмы в хорошем качестве, игры для пк, xbox, playstation без регистрации. У нас вы найдете новые Зарубежные сериалы и Русские сериалы 2013, 2014, 2015 годов. Оставайтесь с нами, качайте любимые фильмы, игры, сериалы, книги и музыку.