img image001 image001 image001 image001 image001 image001 image001 image001 image001 image001 image001 image001 image001 image001 image001

Planets Sun Sun Sun
Статистика раздачи
Автор: Nickolas3434 | Размер: 3.21 ГБ | Добавлен: 19 фев 2014
Раздают: 20    Качают: 5
Скачать торрент
Скачать торрент
Описание торрента

СообщениеДобавлено: 19 фев 2014 

XXII Зимние Олимпийские Игры 2014. Лыжное двоеборье. Мужчины. Личный старт. Масс-старт 10 км

Вид спорта: Лыжное двоеборье
Комментарий: Профессиональный
Язык комментариев: Русский (Сергей Курдюков)
Описание: XXII Зимние Олимпийские Игры 2014. Лыжное двоеборье. Мужчины. Личный старт. Масс-старт 10 км.

Автор рипа: sanchez2011

Качество: HDTV
Формат: MPEG-TS
Видео кодек: AVC
Аудио кодек: MP2
Видео: MPEG4 Video (H264) 1920x1080 14Mbps 25fps
Аудио: MPEG Audio 48000Hz stereo 192kbps

Все результаты соревнований

Продолжительность: 00:31:11


General
ID : 1 (0x1)
Complete name : E:Олимпиада 2014XXII Зимние Олимпийские Игры 2014. 18.02.2014 Лыжное двоеборье. Мужчины. Личный старт. Масс-старт 10 км.ts
Format : MPEG-TS
File size : 3.21 GiB
Duration : 31mn 11s
Overall bit rate mode : Variable
Overall bit rate : 14.7 Mbps

Video
ID : 2141 (0x85D)
Menu ID : 1 (0x1)
Format : AVC
Format/Info : Advanced Video Codec
Format profile : Main@L4.0
Format settings, CABAC : Yes
Format settings, ReFrames : 3 frames
Format settings, GOP : M=4, N=28
Codec ID : 27
Duration : 31mn 11s
Bit rate : 13.8 Mbps
Width : 1 920 pixels
Height : 1 080 pixels
Display aspect ratio : 16:9
Frame rate : 25.000 fps
Standard : Component
Color space : YUV
Chroma subsampling : 4:2:0
Bit depth : 8 bits
Scan type : Interlaced
Scan order : Top Field First
Bits/(Pixel*Frame) : 0.267
Stream size : 3.01 GiB (94%)
Color primaries : BT.709
Transfer characteristics : BT.709
Matrix coefficients : BT.709

Audio
ID : 2142 (0x85E)
Menu ID : 1 (0x1)
Format : MPEG Audio
Format version : Version 1
Format profile : Layer 2
Codec ID : 3
Duration : 31mn 11s
Bit rate mode : Constant
Bit rate : 192 Kbps
Channel(s) : 2 channels
Sampling rate : 48.0 KHz
Compression mode : Lossy
Stream size : 42.8 MiB (1%)
Language : Russian



   Похожие торренты   Торрент   Размер 
В этой теме нет новых непрочитанных сообщений. XXII зимние Олимпийские игры. Лыжное двоеборье. Мужчины. Личный старт. Масс-старт 10 км [Первый HD] [18.02] (2014) HDTVRip

44 | 6

360.9 МБ

В этой теме нет новых непрочитанных сообщений. XXII зимние Олимпийские игры. Лыжное двоеборье. Мужчины. Личный старт. Большой трамплин [Первый HD] [18.02] (2014) HDTV 1080i

26 | 8

5.66 ГБ

В этой теме нет новых непрочитанных сообщений. XXII зимние Олимпийские игры. Лыжное двоеборье. Мужчины. Личный старт. Большой трамплин [Первый HD] [18.02] (2014) HDTVRip

25 | 10

516.19 МБ

В этой теме нет новых непрочитанных сообщений. XXII Зимние Олимпийские игры. Лыжное двоеборье. Личный старт Гундерсен. Средний трамплин. 10 километров [HD Спорт ] [12.02] (2014) DVB

10 | 8

1.95 ГБ

В этой теме нет новых непрочитанных сообщений. XXII зимние Олимпийские игры. Биатлон. Мужчины. Масс-старт. 15 км [ORF 1 HD] [18.02] (2014) HDTV 1080i

18 | 15

4.81 ГБ

В этой теме нет новых непрочитанных сообщений. XXII зимние Олимпийские игры. Лыжные гонки. Мужчины. 50 км. Масс-старт [HD Спорт] [23.02] (2014) HDTV 1080i

9 | 5

15.56 ГБ

В этой теме нет новых непрочитанных сообщений. XXII зимние Олимпийские игры. Биатлон. Масс-старт. Мужчины [Спорт 1 HD] [18.02] (2014) HDTV 1080i от MediaClub

193 | 65

5.77 ГБ




Вы не можете начинать темы
Вы не можете отвечать на сообщения
Вы не можете редактировать свои сообщения
Вы не можете удалять свои сообщения
Вы не можете добавлять вложения

Перейти:  
Для Мосгорсуда, Роскомнадзора и рекламодателей: mosgorsud-torrent[собачка]yandex.ru
 Вход
ppkBB3cker v.2 © 2008-2014 @ PPK
[ Time : 0.521s | 14 Queries | GZIP : Off ]

Торрент трекер RUTOR.IN, Не можете зайти на rutor.org? Какой новый адрес рутор? Какое зеркало рутор? Не работает rutor.org и зеркала? Тогда наш торрент специально для вас. Rutor.in неофициальное зеркало rutor. В случае если у Вас заблокирован rutor или вдруг Вы не можете на него зайти, то Вы без труда сможете скачать бесплатно и без рекламы последние новинки кино, игр, сериалов и прочего у нас, на Rutor.in. Не нужно использовать прокси, чтобы зайти на рутор, достаточно воспользоваться нашим ресурсом. Все новые фильмы, игры, сериалы, книги и музыка за 2013 и 2014 годы через торрент бесплатно. Скачивайте фильмы в хорошем качестве, игры для пк, xbox, playstation без регистрации. У нас вы найдете новые Зарубежные сериалы и Русские сериалы 2013, 2014, 2015 годов. Оставайтесь с нами, качайте любимые фильмы, игры, сериалы, книги и музыку.