img image001 image001 image001 image001 image001 image001 image001 image001 image001 image001 image001 image001 image001 image001 image001

Planets Sun Sun Sun
Статистика раздачи
Автор: Nickolas3434 | Размер: 528.75 МБ | Добавлен: 19 фев 2014
Раздают: 43    Качают: 29
Скачать торрент
Скачать торрент
Описание торрента

СообщениеДобавлено: 19 фев 2014 

XXII Зимние Олимпийские Игры 2014. Сноуборд-кросс. Мужчины. 1/4, 1/2, Финал

Вид спорта: Сноуборд-кросс
Комментарий: Профессиональный
Язык комментариев: Русский
Описание: XXII Зимние Олимпийские Игры 2014. Сноуборд-кросс. Мужчины. Все четвертьфиналы, полуфиналы, малый и большой финалы.

Автор рипа: sanchez2011

Качество: HDTVRip
Формат: MKV
Видео кодек: AVC
Аудио кодек: MP3
Видео: MPEG4 Video (H264) 704x400 ~1200kbps 25fps
Аудио: MPEG Audio Layer 3 48000Hz stereo 128kbps

Все результаты соревнований

Продолжительность: 00:53:37


General
Unique ID : 14064085980851118623140167226642081283 (0xA94A4F9913EE09A30AF490026432603)
Complete name : E:Олимпиада 2014XXII Зимние Олимпийские Игры 2014. 18.02.2014 Сноуборд-кросс. Мужчины.mkv
Format : Matroska
Format version : Version 2
File size : 529 MiB
Duration : 53mn 37s
Overall bit rate : 1 378 Kbps
Writing application : XviD4PSP 6.0 / 53.6.0
Writing library : XviD4PSP 6.0 / 53.6.0

Video
ID : 1
Format : AVC
Format/Info : Advanced Video Codec
Format profile : High@L4.1
Format settings, CABAC : Yes
Format settings, ReFrames : 3 frames
Codec ID : V_MPEG4/ISO/AVC
Duration : 53mn 37s
Bit rate : 1 223 Kbps
Width : 704 pixels
Height : 400 pixels
Display aspect ratio : 16:9
Frame rate mode : Constant
Frame rate : 25.000 fps
Color space : YUV
Chroma subsampling : 4:2:0
Bit depth : 8 bits
Scan type : Progressive
Bits/(Pixel*Frame) : 0.174
Stream size : 469 MiB (89%)
Writing library : x264 core 116 r2019M 9cc407d
Encoding settings : cabac=1 / ref=3 / deblock=1:0:0 / analyse=0x3:0x133 / me=hex / subme=7 / psy=1 / psy_rd=1.00:0.20 / mixed_ref=1 / me_range=16 / chroma_me=1 / trellis=1 / 8x8dct=1 / cqm=0 / deadzone=21,11 / fast_pskip=1 / chroma_qp_offset=-3 / threads=8 / sliced_threads=0 / nr=0 / decimate=1 / interlaced=0 / bluray_compat=0 / constrained_intra=0 / bframes=3 / b_pyramid=1 / b_adapt=2 / b_bias=0 / direct=3 / weightb=1 / open_gop=0 / weightp=2 / keyint=250 / keyint_min=25 / scenecut=40 / intra_refresh=0 / rc_lookahead=40 / rc=crf / mbtree=1 / crf=21.0 / qcomp=0.60 / qpmin=10 / qpmax=51 / qpstep=4 / ip_ratio=1.40 / aq=1:1.00
Default : Yes
Forced : No

Audio
ID : 2
Format : MPEG Audio
Format version : Version 1
Format profile : Layer 3
Mode : Joint stereo
Mode extension : MS Stereo
Codec ID : A_MPEG/L3
Codec ID/Hint : MP3
Duration : 53mn 37s
Bit rate mode : Constant
Bit rate : 128 Kbps
Channel(s) : 2 channels
Sampling rate : 48.0 KHz
Compression mode : Lossy
Stream size : 49.1 MiB (9%)
Writing library : LAME3.98.2ЄЄ
Language : Russian
Default : Yes
Forced : No



   Похожие торренты   Торрент   Размер 
В этой теме нет новых непрочитанных сообщений. XXII зимние Олимпийские игры. Сноуборд-кросс. Мужчины. 1/4, 1/2, Финал [Первый HD] [18.02] (2014) HDTV 1080i

33 | 36

5.55 ГБ

В этой теме нет новых непрочитанных сообщений. XXII зимние Олимпийские игры. Сноуборд-кросс. Четвертьфинал. Полуфинал. Финал [СпортХит HD] [17.02] (2014) HDTV 1080i

59 | 25

11.22 ГБ

В этой теме нет новых непрочитанных сообщений. XXII зимние Олимпийские игры. Ски-кросс. Мужчины. Квалификация [Первый HD] [20.02] (2014) HDTVRip

11 | 3

431.89 МБ

В этой теме нет новых непрочитанных сообщений. XXII зимние Олимпийские игры. Сноуборд. Сноуборд-кросс. Посев. Женщины [Спортхит 1 HD] [16.02] (2014) HDTV 1080i

4 | 7

12.24 ГБ

В этой теме нет новых непрочитанных сообщений. XXII зимние Олимпийские игры. Сноуборд. Сноуборд-кросс. Посев. Женщины [Спорт 1 HD] [16.02] (2014) Stream 720p

18 | 17

1.49 ГБ

В этой теме нет новых непрочитанных сообщений. XXII зимние Олимпийские игры. Ски-кросс. Мужчины. 1/8, 1/4, 1/2, финал [20.02] (2014) Stream 720р

79 | 26

1.64 ГБ

В этой теме нет новых непрочитанных сообщений. XXII зимние Олимпийские игры. Ски-кросс. Мужчины. Квалификация [Первый HD] [20.02] (2014) DVB

16 | 5

2.24 ГБ




Вы не можете начинать темы
Вы не можете отвечать на сообщения
Вы не можете редактировать свои сообщения
Вы не можете удалять свои сообщения
Вы не можете добавлять вложения

Перейти:  
Для Мосгорсуда, Роскомнадзора и рекламодателей: mosgorsud-torrent[собачка]yandex.ru
 Вход
ppkBB3cker v.2 © 2008-2014 @ PPK
[ Time : 0.034s | 14 Queries | GZIP : On ]

Торрент трекер RUTOR.IN, Не можете зайти на rutor.org? Какой новый адрес рутор? Какое зеркало рутор? Не работает rutor.org и зеркала? Тогда наш торрент специально для вас. Rutor.in неофициальное зеркало rutor. В случае если у Вас заблокирован rutor или вдруг Вы не можете на него зайти, то Вы без труда сможете скачать бесплатно и без рекламы последние новинки кино, игр, сериалов и прочего у нас, на Rutor.in. Не нужно использовать прокси, чтобы зайти на рутор, достаточно воспользоваться нашим ресурсом. Все новые фильмы, игры, сериалы, книги и музыка за 2013 и 2014 годы через торрент бесплатно. Скачивайте фильмы в хорошем качестве, игры для пк, xbox, playstation без регистрации. У нас вы найдете новые Зарубежные сериалы и Русские сериалы 2013, 2014, 2015 годов. Оставайтесь с нами, качайте любимые фильмы, игры, сериалы, книги и музыку.