img image001 image001 image001 image001 image001 image001 image001 image001 image001 image001 image001 image001 image001 image001 image001

Planets Sun Sun Sun
Статистика раздачи
Автор: Nickolas3434 | Размер: 838.1 МБ | Добавлен: 20 фев 2014
Раздают: 66    Качают: 11
Скачать торрент
Скачать торрент
Описание торрента

СообщениеДобавлено: 20 фев 2014 

XXII Зимние Олимпийские Игры 2014. Лыжные гонки. Командный спринт. Мужчины, женщины. Финалы

Вид спорта: Лыжные гонки
Комментарий: Профессиональный
Язык комментариев: Русский (Дмитрий Губерниев)
Описание: XXII Зимние Олимпийские Игры 2014. Лыжные гонки. Командный спринт. Мужчины, женщины. Финалы.

Автор рипа: sanchez2011

Качество: HDTVRip
Формат: MKV
Видео кодек: AVC
Аудио кодек: MP3
Видео: MPEG-4 Video (H264) 704x400 (16:9) 25.00fps ~1600kbps
Аудио: MPEG Audio Layer 3 48000Hz stereo 128kbps

Все результаты соревнований

Продолжительность: 01:06:32


General
Unique ID : 186897899812427846083253473544274008983 (0x8C9B39E6E106763F1E33A3D19B955B97)
Complete name : E:Олимпиада 2014XXII Зимние Олимпийские Игры 2014. 19.02.2014 Лыжные гонки. Командный спринт. Мужчины, женщины. Финалы.mkv
Format : Matroska
Format version : Version 2
File size : 838 MiB
Duration : 1h 6mn
Overall bit rate : 1 761 Kbps
Writing application : XviD4PSP 6.0 / 53.6.0
Writing library : XviD4PSP 6.0 / 53.6.0

Video
ID : 1
Format : AVC
Format/Info : Advanced Video Codec
Format profile : High@L4.1
Format settings, CABAC : Yes
Format settings, ReFrames : 3 frames
Codec ID : V_MPEG4/ISO/AVC
Duration : 1h 6mn
Bit rate : 1 598 Kbps
Width : 704 pixels
Height : 400 pixels
Display aspect ratio : 16:9
Frame rate mode : Constant
Frame rate : 25.000 fps
Color space : YUV
Chroma subsampling : 4:2:0
Bit depth : 8 bits
Scan type : Progressive
Bits/(Pixel*Frame) : 0.227
Stream size : 761 MiB (91%)
Writing library : x264 core 116 r2019M 9cc407d
Encoding settings : cabac=1 / ref=3 / deblock=1:0:0 / analyse=0x3:0x133 / me=hex / subme=7 / psy=1 / psy_rd=1.00:0.20 / mixed_ref=1 / me_range=16 / chroma_me=1 / trellis=1 / 8x8dct=1 / cqm=0 / deadzone=21,11 / fast_pskip=1 / chroma_qp_offset=-3 / threads=8 / sliced_threads=0 / nr=0 / decimate=1 / interlaced=0 / bluray_compat=0 / constrained_intra=0 / bframes=3 / b_pyramid=1 / b_adapt=2 / b_bias=0 / direct=3 / weightb=1 / open_gop=0 / weightp=2 / keyint=250 / keyint_min=25 / scenecut=40 / intra_refresh=0 / rc_lookahead=40 / rc=crf / mbtree=1 / crf=21.0 / qcomp=0.60 / qpmin=10 / qpmax=51 / qpstep=4 / ip_ratio=1.40 / aq=1:1.00
Default : Yes
Forced : No

Audio
ID : 2
Format : MPEG Audio
Format version : Version 1
Format profile : Layer 3
Mode : Joint stereo
Mode extension : MS Stereo
Codec ID : A_MPEG/L3
Codec ID/Hint : MP3
Duration : 1h 6mn
Bit rate mode : Constant
Bit rate : 128 Kbps
Channel(s) : 2 channels
Sampling rate : 48.0 KHz
Compression mode : Lossy
Stream size : 60.9 MiB (7%)
Language : Russian
Default : Yes
Forced : No



   Похожие торренты   Торрент   Размер 
В этой теме нет новых непрочитанных сообщений. XXII зимние Олимпийские игры. Лыжные гонки. Командный спринт. Мужчины, женщины. Финалы [Россия HD] [19.02] (2014) HDTV 1080i

35 | 13

5.02 ГБ

В этой теме нет новых непрочитанных сообщений. XXII зимние Олимпийские игры. Лыжные гонки. Командный спринт. Мужчины. женщины. Полуфиналы + Финалы [HD Спорт] [19.02] (2014) HDTV 1080i

7 | 4

23.69 ГБ

В этой теме нет новых непрочитанных сообщений. XXII зимние Олимпийские игры. Лыжи. Мужчины и Женщины. Командный спринт. + Цветочная церемония [HD Спорт] [19.02] (2014) HDTVRip

28 | 8

1.56 ГБ

В этой теме нет новых непрочитанных сообщений. XXII зимние Олимпийские игры. Лыжные гонки. Мужчины. Масс-старт 50 км [Россия HD] [23.02] (2014) HDTVRip 720р

39 | 34

3.12 ГБ

В этой теме нет новых непрочитанных сообщений. XXII зимние Олимпийские игры. Сноуборд. Параллельный слалом. Мужчины, женщины. Финалы [Россия HD] [22.02] (2014) HDTVRip

47 | 21

1.81 ГБ

В этой теме нет новых непрочитанных сообщений. XXII зимние Олимпийские игры. Лыжные гонки. Мужчины. 50 км. Масс-старт [Россия HD] [23.02] (2014) HDTV 1080i

356 | 4

11.72 ГБ

В этой теме нет новых непрочитанных сообщений. Лыжные гонки . Кубок мира 2013-2014. 4-й этап. Асиаго (Италия). Финалы. Командный спринт, , мужчины, женщины, КС (2013) HDTVRip

0 | 2

791.41 МБ




Вы не можете начинать темы
Вы не можете отвечать на сообщения
Вы не можете редактировать свои сообщения
Вы не можете удалять свои сообщения
Вы не можете добавлять вложения

Перейти:  
Для Мосгорсуда, Роскомнадзора и рекламодателей: mosgorsud-torrent[собачка]yandex.ru
 Вход
ppkBB3cker v.2 © 2008-2014 @ PPK
[ Time : 0.020s | 14 Queries | GZIP : On ]

Торрент трекер RUTOR.IN, Не можете зайти на rutor.org? Какой новый адрес рутор? Какое зеркало рутор? Не работает rutor.org и зеркала? Тогда наш торрент специально для вас. Rutor.in неофициальное зеркало rutor. В случае если у Вас заблокирован rutor или вдруг Вы не можете на него зайти, то Вы без труда сможете скачать бесплатно и без рекламы последние новинки кино, игр, сериалов и прочего у нас, на Rutor.in. Не нужно использовать прокси, чтобы зайти на рутор, достаточно воспользоваться нашим ресурсом. Все новые фильмы, игры, сериалы, книги и музыка за 2013 и 2014 годы через торрент бесплатно. Скачивайте фильмы в хорошем качестве, игры для пк, xbox, playstation без регистрации. У нас вы найдете новые Зарубежные сериалы и Русские сериалы 2013, 2014, 2015 годов. Оставайтесь с нами, качайте любимые фильмы, игры, сериалы, книги и музыку.