img image001 image001 image001 image001 image001 image001 image001 image001 image001 image001 image001 image001 image001 image001 image001

Planets Sun Sun Sun
Статистика раздачи
Автор: Nickolas3434 | Размер: 5.82 ГБ | Добавлен: 21 фев 2014
Раздают: 42    Качают: 21
Скачать торрент
Скачать торрент
Описание торрента

СообщениеДобавлено: 21 фев 2014 

XXII Зимние Олимпийские Игры 2014 / Конькобежный спорт / Женщины 5000 м

Вид спорта: Конькобежный спорт
Дата/Год выпуска: 19.02.14
Язык комментариев: русский

Автор записи: SashaR.

Качество: DVB-S2 Remux
Формат видео: TS
Видео: AVC, 1920x1080, 16:9, 11.9 Mbps, 25 fps
Аудио: MP2, 192 kbps, 48 kHz, 2 channels
Аудио: AC-3, 448 kbps, 48 kHz, 5 channels
F:ОлимпиадаКонькобежный спорт. Женщины. 5 000 м (НТВ+).ts
General #6
ID : 6 (0x6)
Complete name : F:ОлимпиадаКонькобежный спорт. Женщины. 5 000 м (НТВ+).ts
Format : MPEG-TS
File size : 5.82 GiB
Duration : 1h 2mn
Overall bit rate mode : Variable
Overall bit rate : 13.2 Mbps
Video #322
ID : 322 (0x142)
Menu ID : 12102 (0x2F46)
Format : AVC
Format/Info : Advanced Video Codec
Format profile : High@L4.0
Format settings, CABAC : Yes
Format settings, ReFrames : 3 frames
Format settings, GOP : M=4, N=28
Codec ID : 27
Duration : 1h 2mn
Bit rate : 11.9 Mbps
Width : 1 920 pixels
Height : 1 080 pixels
Display aspect ratio : 16:9
Frame rate : 25.000 fps
Standard : Component
Color space : YUV
Chroma subsampling : 4:2:0
Bit depth : 8 bits
Scan type : Interlaced
Scan order : Top Field First
Bits/(Pixel*Frame) : 0.230
Stream size : 5.24 GiB (90%)
Color primaries : BT.709
Transfer characteristics : BT.709
Matrix coefficients : BT.709
Audio #402
ID : 402 (0x192)
Menu ID : 12102 (0x2F46)
Format : AC-3
Format/Info : Audio Coding 3
Mode extension : CM (complete main)
Format settings, Endianness : Big
Codec ID : 6
Duration : 1h 2mn
Bit rate mode : Constant
Bit rate : 448 Kbps
Channel count : 5 channels
Channel positions : Front: L C R, Side: L R
Sampling rate : 48.0 KHz
Bit depth : 16 bits
Compression mode : Lossy
Delay relative to video : 174ms
Stream size : 202 MiB (3%)
Language : Russian
Language, more info : Clean effects
Audio #422
ID : 422 (0x1A6)
Menu ID : 12102 (0x2F46)
Format : MPEG Audio
Format version : Version 1
Format profile : Layer 2
Codec ID : 4
Duration : 1h 2mn
Bit rate mode : Constant
Bit rate : 192 Kbps
Channel count : 2 channels
Sampling rate : 48.0 KHz
Compression mode : Lossy
Delay relative to video : 224ms
Stream size : 86.5 MiB (1%)
Language : Russian
Language, more info : Clean effects

01:02:58






   Похожие торренты   Торрент   Размер 
В этой теме нет новых непрочитанных сообщений. XXII Зимние Олимпийские игры. Конькобежный спорт. 3000 м. Женщины [Спорт 1 HD] [09.02] (2014) HDTV 1080i от MediaClub

52 | 7

6.18 ГБ

В этой теме нет новых непрочитанных сообщений. XXII Зимние Олимпийские игры. Конькобежный спорт. Мужчины. 5000м. Финал [Спорт 1 HD] [08.02] (2014) HDTV 1080i

0 | 2

5.41 ГБ

В этой теме нет новых непрочитанных сообщений. XXII Зимние Олимпийские игры. Конькобежный спорт. Мужчины. 5000м. Финал [Спорт 1 HD] [08.02] (2014) HDTV 1080i

0 | 2

10.06 ГБ

В этой теме нет новых непрочитанных сообщений. XXII Зимние Олимпийские игры. Конькобежный спорт. 3000 м. Женщины [Спорт 1 HD] [09.02] (2014) HDTVRip

44 | 8

1.31 ГБ

В этой теме нет новых непрочитанных сообщений. XXII зимние Олимпийские игры. Конькобежный спорт. Женщины 1500 м [Спорт] [16.02] IPTV

44 | 62

1.63 ГБ

В этой теме нет новых непрочитанных сообщений. XXII зимние Олимпийские игры. Горнолыжный спорт. Женщины. Cлалом [Спорт 1 HD] [21.02] (2014) HDTV 1080i

19 | 9

7.4 ГБ

В этой теме нет новых непрочитанных сообщений. XXII зимние Олимпийские игры. Конькобежный спорт. Командные гонки. Мужчины - финал. Женщины - 1/2, финал [22.02] (2014) HDTV 1080i

1 | 6

20.76 ГБ




Вы не можете начинать темы
Вы не можете отвечать на сообщения
Вы не можете редактировать свои сообщения
Вы не можете удалять свои сообщения
Вы не можете добавлять вложения

Перейти:  
Для Мосгорсуда, Роскомнадзора и рекламодателей: mosgorsud-torrent[собачка]yandex.ru
 Вход
ppkBB3cker v.2 © 2008-2014 @ PPK
[ Time : 0.035s | 15 Queries | GZIP : Off ]

Торрент трекер RUTOR.IN, Не можете зайти на rutor.org? Какой новый адрес рутор? Какое зеркало рутор? Не работает rutor.org и зеркала? Тогда наш торрент специально для вас. Rutor.in неофициальное зеркало rutor. В случае если у Вас заблокирован rutor или вдруг Вы не можете на него зайти, то Вы без труда сможете скачать бесплатно и без рекламы последние новинки кино, игр, сериалов и прочего у нас, на Rutor.in. Не нужно использовать прокси, чтобы зайти на рутор, достаточно воспользоваться нашим ресурсом. Все новые фильмы, игры, сериалы, книги и музыка за 2013 и 2014 годы через торрент бесплатно. Скачивайте фильмы в хорошем качестве, игры для пк, xbox, playstation без регистрации. У нас вы найдете новые Зарубежные сериалы и Русские сериалы 2013, 2014, 2015 годов. Оставайтесь с нами, качайте любимые фильмы, игры, сериалы, книги и музыку.
cron