img image001 image001 image001 image001 image001 image001 image001 image001 image001 image001 image001 image001 image001 image001 image001

Planets Sun Sun Sun
Статистика раздачи
Автор: Nickolas3434 | Размер: 1.96 ГБ | Добавлен: 21 фев 2014
Раздают: 28    Качают: 8
Скачать торрент
Скачать торрент
Описание торрента

СообщениеДобавлено: 21 фев 2014 

XXII Зимние Олимпийские Игры 2014. Керлинг. Женщины. Матч за 3-е место. Великобритания - Швейцария

Вид спорта: Керлинг
Комментарий: Профессиональный
Язык комментариев: Русский (Роман Трушечкин)
Описание: XXII Зимние Олимпийские Игры 2014. Керлинг. Женщины. Матч за 3-е место. Великобритания - Швейцария.

Автор рипа: sanchez2011

Качество: DVB
Формат: MPEG-PS
Видео кодек: MPEG2
Аудио кодек: MP2
Видео: MPEG2 Video 720x576 (4:3) 25fps 1600kbps
Аудио: MPEG Audio 48000Hz stereo 192kbps

Все результаты соревнований

Продолжительность: 02:31:30


General
Complete name : E:Олимпиада 2014XXII Зимние Олимпийские Игры 2014. 20.02.2014 Керлинг. Женщины. Матч за 3-е место. Великобритания - Швейцария.mpg
Format : MPEG-PS
File size : 1.96 GiB
Duration : 2h 31mn
Overall bit rate mode : Variable
Overall bit rate : 1 857 Kbps

Video
ID : 224 (0xE0)
Format : MPEG Video
Format version : Version 2
Format profile : Main@Main
Format settings, BVOP : Yes
Format settings, Matrix : Custom
Format settings, GOP : Variable
Duration : 2h 31mn
Bit rate mode : Variable
Bit rate : 1 628 Kbps
Maximum bit rate : 15.0 Mbps
Width : 720 pixels
Height : 576 pixels
Display aspect ratio : 4:3
Frame rate : 25.000 fps
Standard : PAL
Color space : YUV
Chroma subsampling : 4:2:0
Bit depth : 8 bits
Scan type : Interlaced
Scan order : Top Field First
Compression mode : Lossy
Bits/(Pixel*Frame) : 0.157
Time code of first frame : 00:00:00:00
Time code source : Group of pictures header
Stream size : 1.72 GiB (88%)
Matrix coefficients : BT.601

Audio
ID : 192 (0xC0)
Format : MPEG Audio
Format version : Version 1
Format profile : Layer 2
Duration : 2h 31mn
Bit rate mode : Constant
Bit rate : 192 Kbps
Channel(s) : 2 channels
Sampling rate : 48.0 KHz
Compression mode : Lossy
Stream size : 208 MiB (10%)



   Похожие торренты   Торрент   Размер 
В этой теме нет новых непрочитанных сообщений. XXII зимние Олимпийские игры. Кёрлинг. Круговой этап. Женщины. Россия - Великобритания [Спортхит] [17.02] (2014) HDTVRip

17 | 11

1.76 ГБ

В этой теме нет новых непрочитанных сообщений. XXII Зимние Олимпийские игры. Кёрлинг. Круговой этап. 7-й тур. Женщины. Россия - Швейцария [HD Спорт] [14.02] (2014) HDTV 1080i

38 | 8

8.43 ГБ

В этой теме нет новых непрочитанных сообщений. XXII зимние Олимпийские игры. Хоккей. Женщины. Матч за 3-е место. Швейцария - Швеция [ARD HD] [20.02] (2014) HDTVRip 720р

8 | 23

4.05 ГБ

В этой теме нет новых непрочитанных сообщений. XXII Зимние Олимпийские игры. Керлинг. Мужчины. Россия - Великобритания [Россия 2] [10.02] (2014) SATRip от MediaClub

239 | 8

2.01 ГБ

В этой теме нет новых непрочитанных сообщений. XXII зимние Олимпийские игры. Хоккей. Женщины. Матч за 3-е место. Швейцария - Швеция [XSport HD] [20.02] (2014) HDTV 1080i

11 | 7

8.72 ГБ

В этой теме нет новых непрочитанных сообщений. XXII Зимние Олимпийские игры. Керлинг. Мужчины. Россия - Великобритания [HD Спорт] [09.02] (2014) HDTV 1080i

4 | 7

18.11 ГБ

В этой теме нет новых непрочитанных сообщений. XXII Зимние Олимпийские игры. Керлинг. Женщины. Россия - США [Первый] [11.02] (2014) DVB

91 | 27

4.32 ГБ




Вы не можете начинать темы
Вы не можете отвечать на сообщения
Вы не можете редактировать свои сообщения
Вы не можете удалять свои сообщения
Вы не можете добавлять вложения

Перейти:  
Для Мосгорсуда, Роскомнадзора и рекламодателей: mosgorsud-torrent[собачка]yandex.ru
 Вход
ppkBB3cker v.2 © 2008-2014 @ PPK
[ Time : 0.071s | 15 Queries | GZIP : Off ]

Торрент трекер RUTOR.IN, Не можете зайти на rutor.org? Какой новый адрес рутор? Какое зеркало рутор? Не работает rutor.org и зеркала? Тогда наш торрент специально для вас. Rutor.in неофициальное зеркало rutor. В случае если у Вас заблокирован rutor или вдруг Вы не можете на него зайти, то Вы без труда сможете скачать бесплатно и без рекламы последние новинки кино, игр, сериалов и прочего у нас, на Rutor.in. Не нужно использовать прокси, чтобы зайти на рутор, достаточно воспользоваться нашим ресурсом. Все новые фильмы, игры, сериалы, книги и музыка за 2013 и 2014 годы через торрент бесплатно. Скачивайте фильмы в хорошем качестве, игры для пк, xbox, playstation без регистрации. У нас вы найдете новые Зарубежные сериалы и Русские сериалы 2013, 2014, 2015 годов. Оставайтесь с нами, качайте любимые фильмы, игры, сериалы, книги и музыку.