img image001 image001 image001 image001 image001 image001 image001 image001 image001 image001 image001 image001 image001 image001 image001

Planets Sun Sun Sun
Статистика раздачи
Автор: Nickolas3434 | Размер: 5.17 ГБ | Добавлен: 21 фев 2014
Раздают: 33    Качают: 24
Скачать торрент
Скачать торрент
Описание торрента

СообщениеДобавлено: 21 фев 2014 

XXII Зимние Олимпийские Игры 2014. Ски-кросс. Мужчины. Финалы

Вид спорта: Фристайл
Комментарий: Профессиональный
Язык комментариев: Русский
Описание: XXII Зимние Олимпийские Игры 2014. Ски-кросс. Мужчины. Финалы

Внимание! В этой записи урезаны заезды (показаны не все заезды)!

Автор рипа: sanchez2011

Качество: HDTV
Формат: MPEG-TS
Видео кодек: AVC
Аудио кодек: MP2
Видео: MPEG4 Video (H264) 1920x1080 14.0Mbps 25fps
Аудио: MPEG Audio 48000Hz stereo 192kbps



Все результаты соревнований

Продолжительность: 00:49:43


General
ID : 1 (0x1)
Complete name : E:Олимпиада 2014XXII Зимние Олимпийские Игры 2014. 20.02.2014 Ски-кросс. Мужчины. Финалы.ts
Format : MPEG-TS
File size : 5.17 GiB
Duration : 49mn 43s
Overall bit rate mode : Variable
Overall bit rate : 14.9 Mbps

Video
ID : 2141 (0x85D)
Menu ID : 1 (0x1)
Format : AVC
Format/Info : Advanced Video Codec
Format profile : Main@L4.0
Format settings, CABAC : Yes
Format settings, ReFrames : 3 frames
Codec ID : 27
Duration : 49mn 43s
Bit rate : 14.0 Mbps
Width : 1 920 pixels
Height : 1 080 pixels
Display aspect ratio : 16:9
Frame rate : 25.000 fps
Standard : Component
Color space : YUV
Chroma subsampling : 4:2:0
Bit depth : 8 bits
Scan type : Interlaced
Scan order : Top Field First
Bits/(Pixel*Frame) : 0.269
Stream size : 4.85 GiB (94%)
Color primaries : BT.709
Transfer characteristics : BT.709
Matrix coefficients : BT.709

Audio
ID : 2142 (0x85E)
Menu ID : 1 (0x1)
Format : MPEG Audio
Format version : Version 1
Format profile : Layer 2
Codec ID : 3
Duration : 49mn 43s
Bit rate mode : Constant
Bit rate : 192 Kbps
Channel(s) : 2 channels
Sampling rate : 48.0 KHz
Compression mode : Lossy
Stream size : 68.3 MiB (1%)
Language : Russian



   Похожие торренты   Торрент   Размер 
В этой теме нет новых непрочитанных сообщений. XXII зимние Олимпийские игры. Ски Кросс. Мужчины [ORF 1 HD] [18.02] (2014) HDTV 1080i

3 | 3

12.64 ГБ

В этой теме нет новых непрочитанных сообщений. XXII зимние Олимпийские игры. Ски-кросс. Мужчины. Квалификация [Первый HD] [20.02] (2014) HDTV 1080i

12 | 12

4.39 ГБ

В этой теме нет новых непрочитанных сообщений. XXII зимние Олимпийские игры. Сноуборд-кросс. Мужчины. 1/4, 1/2, Финал [Первый HD] [18.02] (2014) HDTV 1080i

33 | 36

5.55 ГБ

В этой теме нет новых непрочитанных сообщений. XXII зимние Олимпийские игры. Сноуборд. Параллельный слалом. Мужчины, женщины. Финалы [Россия HD] [22.02] (2014) HDTV 1080i

6 | 5

10.94 ГБ

В этой теме нет новых непрочитанных сообщений. XXII зимние Олимпийские игры. Сноуборд. Гигантский параллельный слалом. Мужчины, Женщины. Финалы [HD Спорт] [19.02] (2014) HDTV 1080i

39 | 46

11.96 ГБ

В этой теме нет новых непрочитанных сообщений. XXII зимние Олимпийские игры. Лыжные гонки. Командный спринт. Мужчины, женщины. Финалы [Россия HD] [19.02] (2014) HDTV 1080i

35 | 13

5.02 ГБ

В этой теме нет новых непрочитанных сообщений. XXII Зимние Олимпийские игры. Шорт-трек. Мужчины 1000 м. Женщины 1500 м. Финалы [HD Спорт] [15.02] (2014) HDTV 1080i

21 | 17

9.82 ГБ




Вы не можете начинать темы
Вы не можете отвечать на сообщения
Вы не можете редактировать свои сообщения
Вы не можете удалять свои сообщения
Вы не можете добавлять вложения

Перейти:  
Для Мосгорсуда, Роскомнадзора и рекламодателей: mosgorsud-torrent[собачка]yandex.ru
 Вход
ppkBB3cker v.2 © 2008-2014 @ PPK
[ Time : 0.020s | 14 Queries | GZIP : Off ]

Торрент трекер RUTOR.IN, Не можете зайти на rutor.org? Какой новый адрес рутор? Какое зеркало рутор? Не работает rutor.org и зеркала? Тогда наш торрент специально для вас. Rutor.in неофициальное зеркало rutor. В случае если у Вас заблокирован rutor или вдруг Вы не можете на него зайти, то Вы без труда сможете скачать бесплатно и без рекламы последние новинки кино, игр, сериалов и прочего у нас, на Rutor.in. Не нужно использовать прокси, чтобы зайти на рутор, достаточно воспользоваться нашим ресурсом. Все новые фильмы, игры, сериалы, книги и музыка за 2013 и 2014 годы через торрент бесплатно. Скачивайте фильмы в хорошем качестве, игры для пк, xbox, playstation без регистрации. У нас вы найдете новые Зарубежные сериалы и Русские сериалы 2013, 2014, 2015 годов. Оставайтесь с нами, качайте любимые фильмы, игры, сериалы, книги и музыку.