img image001 image001 image001 image001 image001 image001 image001 image001 image001 image001 image001 image001 image001 image001 image001

Planets Sun Sun Sun
Статистика раздачи
Автор: Nickolas3434 | Размер: 1.79 ГБ | Добавлен: 21 фев 2014
Раздают: 31    Качают: 11
Скачать торрент
Скачать торрент
Описание торрента

СообщениеДобавлено: 21 фев 2014 

XXII Зимние Олимпийские Игры 2014. Лыжное двоеборье. Командные соревнования. Эстафета 4х5 км
Вид спорта: Лыжное двоеборье
Комментарий: Профессиональный
Язык комментариев: Русский (Курдюков)
Описание: XXII Зимние Олимпийские Игры 2014. Лыжное двоеборье. Командные соревнования. Эстафета 4х5 км.
Автор рипа: sanchez2011
Качество: DVB
Формат: MPEG-PS
Видео кодек: MPEG2
Аудио кодек: MP2
Видео: MPEG2 Video 720x576 (16:9) 25fps 4000Kbps
Аудио: MPEG Audio 48000Hz stereo 192kbps



Все результаты соревнований

Продолжительность: 01:00:48


General
Complete name : E:Олимпиада 2014XXII Зимние Олимпийские Игры 2014. 20.02.2014 Лыжное двоеборье. Командные соревнования. Эстафета 4х5 км.mpg
Format : MPEG-PS
File size : 1.79 GiB
Duration : 1h 0mn
Overall bit rate mode : Variable
Overall bit rate : 4 207 Kbps

Video
ID : 224 (0xE0)
Format : MPEG Video
Format version : Version 2
Format profile : Main@Main
Format settings, BVOP : Yes
Format settings, Matrix : Custom
Format settings, GOP : Variable
Duration : 1h 0mn
Bit rate mode : Variable
Bit rate : 3 931 Kbps
Maximum bit rate : 15.0 Mbps
Width : 720 pixels
Height : 576 pixels
Display aspect ratio : 16:9
Frame rate : 25.000 fps
Standard : PAL
Color space : YUV
Chroma subsampling : 4:2:0
Bit depth : 8 bits
Scan type : Interlaced
Scan order : Top Field First
Compression mode : Lossy
Bits/(Pixel*Frame) : 0.379
Time code of first frame : 00:00:00:00
Time code source : Group of pictures header
Stream size : 1.67 GiB (93%)

Audio
ID : 192 (0xC0)
Format : MPEG Audio
Format version : Version 1
Format profile : Layer 2
Duration : 1h 0mn
Bit rate mode : Constant
Bit rate : 192 Kbps
Channel(s) : 2 channels
Sampling rate : 48.0 KHz
Compression mode : Lossy
Stream size : 83.5 MiB (5%)



   Похожие торренты   Торрент   Размер 
В этой теме нет новых непрочитанных сообщений. XXII Зимние Олимпийские игры. Фигурное катание. Командные соревнования [Спорт 1 HD] [06.02] (2014) HDTV 1080i

0 | 2

17.86 ГБ

В этой теме нет новых непрочитанных сообщений. XXII зимние Олимпийские игры. Прыжки на лыжах с трамплина. Мужчины. Командные соревнования [Россия 2] [17.02] (2014) DVB

56 | 46

2.08 ГБ

В этой теме нет новых непрочитанных сообщений. XXII Зимние Олимпийские игры. Фигурное катание. Командные соревнования. Короткий танец [Спортхит] (2014) DVB

128 | 15

3.19 ГБ

В этой теме нет новых непрочитанных сообщений. XXII зимние Олимпийские игры. Лыжное Двоеборье. Команды. HS 135 + 4x5 км Гундерсен [HD Спорт] [20.02] (2014) HDTV 1080i

0 | 5

16.27 ГБ

В этой теме нет новых непрочитанных сообщений. XXII зимние Олимпийские игры. Лыжное Двоеборье. Команды. HS 135 + 4x5 км Гундерсен [Спорт 1 HD] [21.02] (2014) HDTV 1080i

2 | 3

4.04 ГБ

В этой теме нет новых непрочитанных сообщений. XXII зимние Олимпийские игры. Лыжное двоеборье. Мужчины. Личный старт. Большой трамплин [Первый HD] [18.02] (2014) HDTVRip

25 | 10

516.19 МБ

В этой теме нет новых непрочитанных сообщений. XXII Зимние Олимпийские игры. Лыжное двоеборье. Личный старт Гундерсен. Средний трамплин. 10 километров [HD Спорт ] [12.02] (2014) DVB

10 | 8

1.95 ГБ




Вы не можете начинать темы
Вы не можете отвечать на сообщения
Вы не можете редактировать свои сообщения
Вы не можете удалять свои сообщения
Вы не можете добавлять вложения

Перейти:  
Для Мосгорсуда, Роскомнадзора и рекламодателей: mosgorsud-torrent[собачка]yandex.ru
 Вход
ppkBB3cker v.2 © 2008-2014 @ PPK
[ Time : 0.035s | 16 Queries | GZIP : Off ]

Торрент трекер RUTOR.IN, Не можете зайти на rutor.org? Какой новый адрес рутор? Какое зеркало рутор? Не работает rutor.org и зеркала? Тогда наш торрент специально для вас. Rutor.in неофициальное зеркало rutor. В случае если у Вас заблокирован rutor или вдруг Вы не можете на него зайти, то Вы без труда сможете скачать бесплатно и без рекламы последние новинки кино, игр, сериалов и прочего у нас, на Rutor.in. Не нужно использовать прокси, чтобы зайти на рутор, достаточно воспользоваться нашим ресурсом. Все новые фильмы, игры, сериалы, книги и музыка за 2013 и 2014 годы через торрент бесплатно. Скачивайте фильмы в хорошем качестве, игры для пк, xbox, playstation без регистрации. У нас вы найдете новые Зарубежные сериалы и Русские сериалы 2013, 2014, 2015 годов. Оставайтесь с нами, качайте любимые фильмы, игры, сериалы, книги и музыку.
cron