img image001 image001 image001 image001 image001 image001 image001 image001 image001 image001 image001 image001 image001 image001 image001

Planets Sun Sun Sun
Статистика раздачи
Автор: Nickolas3434 | Размер: 12.64 ГБ | Добавлен: 22 фев 2014
Раздают: 3    Качают: 3
Скачать торрент
Скачать торрент
Описание торрента

СообщениеДобавлено: 22 фев 2014 

XXII Зимние Олимпийские Игры 2014 / Горнолыжный спорт / Женщины / Гигантский слалом


Вид спорта: Горные лыжи
Дата/Год выпуска: 18.02.14
Язык комментариев: немецкий

Автор записи: SashaR.

Качество: DVB-S2 Remux
Формат видео: TS
Видео: AVC, 1280x720, 16:9, 7 801 Kbps, 50 fps
Аудио: MP2, 160 kbps, 48 kHz, 2 channels
Аудио: MP2, 160 kbps, 48 kHz, 2 channels
Аудио: AC-3, 448 kbps, 48 kHz, 6 channels
F:ОлимпиадаГорные лыжи. Женщины. Гигантский слаломГорные лыжи. Женщины. Гигантский слалом. 2-я попытка (ORF 1 HD).ts
General #1007
ID : 1007 (0x3EF)
Complete name : F:ОлимпиадаГорные лыжи. Женщины. Гигантский слаломГорные лыжи. Женщины. Гигантский слалом. 2-я попытка (ORF 1 HD).ts
Format : MPEG-TS
File size : 7.27 GiB
Duration : 1h 55mn
Overall bit rate mode : Variable
Overall bit rate : 9 023 Kbps
Video #1920
ID : 1920 (0x780)
Menu ID : 4911 (0x132F)
Format : AVC
Format/Info : Advanced Video Codec
Format profile : High@L4.0
Format settings, CABAC : Yes
Format settings, ReFrames : 4 frames
Codec ID : 27
Duration : 1h 55mn
Bit rate : 7 801 Kbps
Width : 1 280 pixels
Height : 720 pixels
Display aspect ratio : 16:9
Frame rate : 50.000 fps
Color space : YUV
Chroma subsampling : 4:2:0
Bit depth : 8 bits
Scan type : Progressive
Bits/(Pixel*Frame) : 0.169
Stream size : 6.28 GiB (86%)
Audio #1921
ID : 1921 (0x781)
Menu ID : 4911 (0x132F)
Format : MPEG Audio
Format version : Version 1
Format profile : Layer 2
Mode : Joint stereo
Codec ID : 4
Duration : 1h 55mn
Bit rate mode : Constant
Bit rate : 160 Kbps
Channel count : 2 channels
Sampling rate : 48.0 KHz
Compression mode : Lossy
Delay relative to video : 41ms
Stream size : 132 MiB (2%)
Language : German
Language, more info : Clean effects
Audio #1922
ID : 1922 (0x782)
Menu ID : 4911 (0x132F)
Format : MPEG Audio
Format version : Version 1
Format profile : Layer 2
Mode : Joint stereo
Codec ID : 4
Duration : 1h 55mn
Bit rate mode : Constant
Bit rate : 160 Kbps
Channel count : 2 channels
Sampling rate : 48.0 KHz
Compression mode : Lossy
Delay relative to video : 41ms
Stream size : 132 MiB (2%)
Language : English
Language, more info : Clean effects
Audio #1923
ID : 1923 (0x783)
Menu ID : 4911 (0x132F)
Format : AC-3
Format/Info : Audio Coding 3
Mode extension : CM (complete main)
Format settings, Endianness : Big
Codec ID : 6
Duration : 1h 55mn
Bit rate mode : Constant
Bit rate : 448 Kbps
Channel count : 6 channels
Channel positions : Front: L C R, Side: L R, LFE
Sampling rate : 48.0 KHz
Bit depth : 16 bits
Compression mode : Lossy
Delay relative to video : 111ms
Stream size : 369 MiB (5%)
Language : German
Language, more info : Clean effects

1-я попытка - 00:54:44
2-я попытка - 01:55:16






   Похожие торренты   Торрент   Размер 
В этой теме нет новых непрочитанных сообщений. XXII зимние Олимпийские игры. Ски-кросс. Мужчины. Финалы [20.02] (2014) HDTV 1080i

33 | 24

5.17 ГБ

В этой теме нет новых непрочитанных сообщений. XXII зимние Олимпийские игры. Ски-кросс. Мужчины. Квалификация [Первый HD] [20.02] (2014) HDTV 1080i

12 | 12

4.39 ГБ

В этой теме нет новых непрочитанных сообщений. XXII зимние Олимпийские игры. Сноуборд-кросс. Мужчины. 1/4, 1/2, Финал [Первый HD] [18.02] (2014) HDTV 1080i

33 | 36

5.55 ГБ

В этой теме нет новых непрочитанных сообщений. XXII зимние Олимпийские игры. Ски Кросс. Женщины [HD Спорт] [21.02] (2014) HDTV 1080i

10 | 7

18.18 ГБ

В этой теме нет новых непрочитанных сообщений. XXII зимние Олимпийские игры. Фристайл. Ски-кросс. Женщины. Квалификация [Спорт 1 HD] [21.02] (2014) HDTV 1080i

5 | 11

5.95 ГБ

В этой теме нет новых непрочитанных сообщений. XXII зимние Олимпийские игры. Фристайл. Ски-кросс. Женщины. 1/8, 1/4, 1/2, финал [Спорт 1 HD] [21.02] (2014) HDTV 1080i

19 | 12

6.95 ГБ

В этой теме нет новых непрочитанных сообщений. XXII зимние Олимпийские игры. Сноуборд-кросс. Четвертьфинал. Полуфинал. Финал [СпортХит HD] [17.02] (2014) HDTV 1080i

59 | 25

11.22 ГБ




Вы не можете начинать темы
Вы не можете отвечать на сообщения
Вы не можете редактировать свои сообщения
Вы не можете удалять свои сообщения
Вы не можете добавлять вложения

Перейти:  
Для Мосгорсуда, Роскомнадзора и рекламодателей: mosgorsud-torrent[собачка]yandex.ru
 Вход
ppkBB3cker v.2 © 2008-2014 @ PPK
[ Time : 0.020s | 16 Queries | GZIP : On ]

Торрент трекер RUTOR.IN, Не можете зайти на rutor.org? Какой новый адрес рутор? Какое зеркало рутор? Не работает rutor.org и зеркала? Тогда наш торрент специально для вас. Rutor.in неофициальное зеркало rutor. В случае если у Вас заблокирован rutor или вдруг Вы не можете на него зайти, то Вы без труда сможете скачать бесплатно и без рекламы последние новинки кино, игр, сериалов и прочего у нас, на Rutor.in. Не нужно использовать прокси, чтобы зайти на рутор, достаточно воспользоваться нашим ресурсом. Все новые фильмы, игры, сериалы, книги и музыка за 2013 и 2014 годы через торрент бесплатно. Скачивайте фильмы в хорошем качестве, игры для пк, xbox, playstation без регистрации. У нас вы найдете новые Зарубежные сериалы и Русские сериалы 2013, 2014, 2015 годов. Оставайтесь с нами, качайте любимые фильмы, игры, сериалы, книги и музыку.