img image001 image001 image001 image001 image001 image001 image001 image001 image001 image001 image001 image001 image001 image001 image001

Planets Sun Sun Sun
Статистика раздачи
Автор: Nickolas3434 | Размер: 7.4 ГБ | Добавлен: 22 фев 2014
Раздают: 19    Качают: 9
Скачать торрент
Скачать торрент
Описание торрента

СообщениеДобавлено: 22 фев 2014 

XXII Зимние Олимпийские Игры 2014 / Горнолыжный спорт / Женщины / Cлалом / НТВ+

Вид спорта: Горные лыжи
Дата/Год выпуска: 21.02.14
Язык комментариев: русский

Автор записи: SashaR.

Качество: DVB-S2 Remux
Формат видео: TS
Видео: AVC, 1920x1080, 16:9, 12.6 Mbps, 25 fps
Аудио: MP2, 192 kbps, 48 kHz, 2 channels
Аудио: AC-3, 448 kbps, 48 kHz, 5 channels
F:ОлимпиадаГорные лыжи. Женщины. СлаломГорные лыжи. Женщины. Слалом. 1-я попытка (НТВ+).ts
General #6
ID : 6 (0x6)
Complete name : F:ОлимпиадаГорные лыжи. Женщины. СлаломГорные лыжи. Женщины. Слалом. 1-я попытка (НТВ+).ts
Format : MPEG-TS
File size : 7.40 GiB
Duration : 1h 16mn
Overall bit rate mode : Variable
Overall bit rate : 13.9 Mbps
Video #322
ID : 322 (0x142)
Menu ID : 12102 (0x2F46)
Format : AVC
Format/Info : Advanced Video Codec
Format profile : High@L4.0
Format settings, CABAC : Yes
Format settings, ReFrames : 3 frames
Codec ID : 27
Duration : 1h 16mn
Bit rate : 12.6 Mbps
Width : 1 920 pixels
Height : 1 080 pixels
Display aspect ratio : 16:9
Frame rate : 25.000 fps
Standard : Component
Color space : YUV
Chroma subsampling : 4:2:0
Bit depth : 8 bits
Scan type : Interlaced
Scan order : Top Field First
Bits/(Pixel*Frame) : 0.242
Stream size : 6.69 GiB (90%)
Color primaries : BT.709
Transfer characteristics : BT.709
Matrix coefficients : BT.709
Audio #402
ID : 402 (0x192)
Menu ID : 12102 (0x2F46)
Format : AC-3
Format/Info : Audio Coding 3
Mode extension : CM (complete main)
Format settings, Endianness : Big
Codec ID : 6
Duration : 1h 16mn
Bit rate mode : Constant
Bit rate : 448 Kbps
Channel count : 5 channels
Channel positions : Front: L C R, Side: L R
Sampling rate : 48.0 KHz
Bit depth : 16 bits
Compression mode : Lossy
Delay relative to video : -6ms
Stream size : 244 MiB (3%)
Language : Russian
Language, more info : Clean effects
Audio #422
ID : 422 (0x1A6)
Menu ID : 12102 (0x2F46)
Format : MPEG Audio
Format version : Version 1
Format profile : Layer 2
Codec ID : 4
Duration : 1h 16mn
Bit rate mode : Constant
Bit rate : 192 Kbps
Channel count : 2 channels
Sampling rate : 48.0 KHz
Compression mode : Lossy
Delay relative to video : 45ms
Stream size : 105 MiB (1%)
Language : Russian
Language, more info : Clean effects

1-я попытка - 01:16:14






   Похожие торренты   Торрент   Размер 
В этой теме нет новых непрочитанных сообщений. XXII зимние Олимпийские игры. Горнолыжный спорт. Женщины. Гигантский слалом. 2-я попытка [Спорт HD] [18.02] (2014) HDTV 1080i

25 | 24

7.72 ГБ

В этой теме нет новых непрочитанных сообщений. XXII зимние Олимпийские игры. Горнолыжный спорт. Женщины. Гигантский слалом. 1-я попытка [Спорт HD] [18.02] (2014) HDTV 1080i

24 | 14

6.62 ГБ

В этой теме нет новых непрочитанных сообщений. XXII зимние Олимпийские игры. Горнолыжный спорт. Женщины. Cлалом. Попытка 2 [21.02] (2014) Stream 720p

31 | 54

1.79 ГБ

В этой теме нет новых непрочитанных сообщений. XXII зимние Олимпийские игры. Горнолыжный спорт. Женщины. Cлалом. Попытка 1 [21.02] (2014) Stream 720p

22 | 42

1.81 ГБ

В этой теме нет новых непрочитанных сообщений. XXII Зимние Олимпийские игры. Горнолыжный спорт. Мужчины. Супергигант [HD Спорт] [16.02] (2014) HDTV 1080i

32 | 15

7.18 ГБ

В этой теме нет новых непрочитанных сообщений. XXII Зимние Олимпийские игры. Горнолыжный спорт. Скоростной спуск. Мужчины [Спорт 1 HD] [09.02] (2014) HDTV 1080i

39 | 5

10.47 ГБ

В этой теме нет новых непрочитанных сообщений. XXII зимние Олимпийские игры. Горнолыжный спорт. Мужчины. Гигантский слалом. 1-я попытка [HD Спорт] [19.02] (2014) HDTV 1080i

29 | 10

3.5 ГБ




Вы не можете начинать темы
Вы не можете отвечать на сообщения
Вы не можете редактировать свои сообщения
Вы не можете удалять свои сообщения
Вы не можете добавлять вложения

Перейти:  
Для Мосгорсуда, Роскомнадзора и рекламодателей: mosgorsud-torrent[собачка]yandex.ru
 Вход
ppkBB3cker v.2 © 2008-2014 @ PPK
[ Time : 0.042s | 15 Queries | GZIP : Off ]

cron