img image001 image001 image001 image001 image001 image001 image001 image001 image001 image001 image001 image001 image001 image001 image001

Planets Sun Sun Sun
Статистика раздачи
Автор: Nickolas3434 | Размер: 1.02 ГБ | Добавлен: 22 фев 2014
Раздают: 133    Качают: 30
Скачать торрент
Скачать торрент
Описание торрента

СообщениеДобавлено: 22 фев 2014 

XXII Зимние Олимпийские Игры 2014. Биатлон. Женщины. Эстафета 4x6 км

Вид спорта: Биатлон
Комментарий: Профессиональный
Язык комментариев: Русский (Дмитрий Терехов и Николай Круглов)
Описание: XXII Зимние Олимпийские Игры 2014. Биатлон. Женщины. Эстафета 4x6 км. Присутствует цветочная церемония.

Автор рипа: sanchez2011

Качество: HDTVRip
Формат: AVI
Видео кодек: XviD
Аудио кодек: MP3
Видео: MPEG-4 Visual (H263) 704x400 (16:9) 25.00fps 1500kbps
Аудио: MPEG Audio Layer 3 48000Hz stereo 128kbps

Все результаты соревнований

Продолжительность: 01:28:59


General
Complete name : E:Олимпиада 2014XXII Зимние Олимпийские Игры 2014. 21.02.2014 Биатлон. Женщины. Эстафета 4x6 км.avi
Format : AVI
Format/Info : Audio Video Interleave
File size : 1.02 GiB
Duration : 1h 28mn
Overall bit rate : 1 637 Kbps
Writing application : VirtualDubMod 1.5.10.2 (build 2540/release)
Writing library : VirtualDubMod build 2540/release

Video
ID : 0
Format : MPEG-4 Visual
Format profile : Advanced Simple@L5
Format settings, BVOP : 2
Format settings, QPel : No
Format settings, GMC : No warppoints
Format settings, Matrix : Default (H.263)
Codec ID : XVID
Codec ID/Hint : XviD
Duration : 1h 28mn
Bit rate : 1 500 Kbps
Width : 704 pixels
Height : 400 pixels
Display aspect ratio : 16:9
Frame rate : 25.000 fps
Color space : YUV
Chroma subsampling : 4:2:0
Bit depth : 8 bits
Scan type : Progressive
Compression mode : Lossy
Bits/(Pixel*Frame) : 0.213
Stream size : 955 MiB (92%)
Writing library : XviD 64

Audio
ID : 1
Format : MPEG Audio
Format version : Version 1
Format profile : Layer 3
Mode : Joint stereo
Mode extension : MS Stereo
Codec ID : 55
Codec ID/Hint : MP3
Duration : 1h 28mn
Bit rate mode : Constant
Bit rate : 128 Kbps
Channel(s) : 2 channels
Sampling rate : 48.0 KHz
Compression mode : Lossy
Stream size : 81.4 MiB (8%)
Alignment : Aligned on interleaves
Interleave, duration : 40 ms (1.00 video frame)
Interleave, preload duration : 504 ms



   Похожие торренты   Торрент   Размер 
В этой теме нет новых непрочитанных сообщений. XXII зимние Олимпийские игры. Биатлон. Эстафета. Женщины [Первый HD] [21.02] (2014) HDTV 1080i

71 | 34

9.64 ГБ

В этой теме нет новых непрочитанных сообщений. XXII зимние Олимпийские игры. Биатлон. Эстафета. Женщины [Спорт 1 HD] [21.02] (2014) HDTVRip

531 | 87

1.32 ГБ

В этой теме нет новых непрочитанных сообщений. XXII зимние Олимпийские игры. Биатлон. Эстафета. Женщины [Спорт 1 HD] [21.02] (2014) HDTVRip 720р

45 | 25

1.87 ГБ

В этой теме нет новых непрочитанных сообщений. XXII зимние Олимпийские игры. Биатлон. Эстафета. Женщины [Спортхит] [21.02] (2014) DVB

20 | 6

4.35 ГБ

В этой теме нет новых непрочитанных сообщений. XXII зимние Олимпийские игры. Биатлон. Эстафета. Женщины [HD Спорт] [21.02] (2014) HDTV 1080i

22 | 3

11.44 ГБ

В этой теме нет новых непрочитанных сообщений. XXII зимние Олимпийские игры. Биатлон. Эстафета. Женщины [Спорт 1 HD] [21.02] (2014) HDTV 1080i от MediaClub

270 | 33

5.77 ГБ

В этой теме нет новых непрочитанных сообщений. XXII зимние Олимпийские игры. Биатлон. Мужчины. Эстафета 4x7,5 км [Спорт 1 HD] [22.02] (2014) HDTVRip

538 | 151

1.57 ГБ




Вы не можете начинать темы
Вы не можете отвечать на сообщения
Вы не можете редактировать свои сообщения
Вы не можете удалять свои сообщения
Вы не можете добавлять вложения

Перейти:  
Для Мосгорсуда, Роскомнадзора и рекламодателей: mosgorsud-torrent[собачка]yandex.ru
 Вход
ppkBB3cker v.2 © 2008-2014 @ PPK
[ Time : 0.046s | 15 Queries | GZIP : Off ]

cron