img image001 image001 image001 image001 image001 image001 image001 image001 image001 image001 image001 image001 image001 image001 image001

Planets Sun Sun Sun
Статистика раздачи
Автор: Nickolas3434 | Размер: 10.84 ГБ | Добавлен: 22 фев 2014
Раздают: 36    Качают: 23
Скачать торрент
Скачать торрент
Описание торрента

СообщениеДобавлено: 22 фев 2014 

XXII Зимние Олимпийские Игры 2014. Шорт-трек. Мужчины 500 м. Женщины 1000 м. Эстафета у мужчин 5000 м

Вид спорта: Конькобежный спорт
Комментарий: Профессиональный
Язык комментариев: Русский (Богословская с кем-то)
Описание: XXII Зимние Олимпийские Игры 2014. Шорт-трек. Мужские четвертьфинальные, полуфинальные и финальные старты на 500 м. Женские четвертьфинальные, полуфинальные и финальные старты на 1000 м. Финалы в мужской эстафете на 5000 м.

Присутствует цветочная церемония!

Запись со старта первого забега - первого четвертьфинала у мужчин на дистанции 500 метров. Без прелюдий.Поздно включил канал, вобщем-то как обычно

Автор рипа: sanchez2011

Качество: HDTV
Формат: MPEG-TS
Видео кодек: AVC
Аудио кодек: MP2
Видео: MPEG4 Video (H264) 1920x1080 10Mbps 25fps
Аудио: MPEG Audio 48000Hz stereo 224kbps

Все результаты соревнований

Продолжительность: 02:27:35


General
ID : 1 (0x1)
Complete name : E:Олимпиада 2014XXII Зимние Олимпийские Игры 2014. 21.02.2014 Шорт-трек. Мужчины 500 м. Женщины 1000 м. Эстафета у мужчин 5000 м.ts
Format : MPEG-TS
File size : 10.8 GiB
Duration : 2h 27mn
Overall bit rate mode : Variable
Overall bit rate : 10.5 Mbps

Video
ID : 1901 (0x76D)
Menu ID : 1 (0x1)
Format : AVC
Format/Info : Advanced Video Codec
Format profile : High@L4.0
Format settings, CABAC : Yes
Format settings, ReFrames : 3 frames
Codec ID : 27
Duration : 2h 27mn
Bit rate : 9 772 Kbps
Width : 1 920 pixels
Height : 1 080 pixels
Display aspect ratio : 16:9
Frame rate : 25.000 fps
Standard : Component
Color space : YUV
Chroma subsampling : 4:2:0
Bit depth : 8 bits
Scan type : Interlaced
Scan order : Top Field First
Bits/(Pixel*Frame) : 0.188
Stream size : 10.1 GiB (93%)
Color primaries : BT.709
Transfer characteristics : BT.709
Matrix coefficients : BT.709

Audio
ID : 2901 (0xB55)
Menu ID : 1 (0x1)
Format : MPEG Audio
Format version : Version 1
Format profile : Layer 2
Codec ID : 3
Duration : 2h 27mn
Bit rate mode : Constant
Bit rate : 224 Kbps
Channel(s) : 2 channels
Sampling rate : 48.0 KHz
Compression mode : Lossy
Stream size : 236 MiB (2%)
Language : Russian



   Похожие торренты   Торрент   Размер 
В этой теме нет новых непрочитанных сообщений. XXII Зимние Олимпийские игры. Шорт-трек. Мужчины. Эстафета 5000 м. Полуфинал 2 [Спорт 1 HD] [13.02] (2014) HDTV 1080i

16 | 20

3.96 ГБ

В этой теме нет новых непрочитанных сообщений. XXII Зимние Олимпийские игры. Шорт-трек. Мужчины. Эстафета 5000 м. Полуфиналы [Спорт 1 HD] [13.02] (2014) HDTV 1080i

18 | 15

1.45 ГБ

В этой теме нет новых непрочитанных сообщений. XXII зимние Олимпийские игры. Шорт-трек. Только Финалы. М 500 м, Ж 1000 м, Эст у м 5000 м [Россия HD] [21.02] (2014) HDTV 1080i

33 | 208

1.82 ГБ

В этой теме нет новых непрочитанных сообщений. XXII Зимние Олимпийские игры. Шорт-трек. Мужчины 1000 м. Женщины 1500 м. Финалы [HD Спорт] [15.02] (2014) HDTV 1080i

21 | 17

9.82 ГБ

В этой теме нет новых непрочитанных сообщений. XXII Зимние Олимпийские игры. Шорт-трек. Мужчины. 1000 м. ¼, ½ финала. Финал [15.02] (2014) HDTV 1080i

47 | 32

2.2 ГБ

В этой теме нет новых непрочитанных сообщений. XXII зимние Олимпийские игры. Шорт-трек. М. Эст 5000 м - финал. 500 м - 1/4,1/2,финал. Ж. 1000 м - 1/4,1/2,финал [21.02] (2014) Stream 720р

120 | 55

2.87 ГБ

В этой теме нет новых непрочитанных сообщений. XXII Зимние Олимпийские игры. Шорт-трек. Мужчины, женщины. Квалификации, полуфиналы, финал [Спорт 1 HD] [10.02] (2014) HDTV 1080i

29 | 2

7.41 ГБ




Вы не можете начинать темы
Вы не можете отвечать на сообщения
Вы не можете редактировать свои сообщения
Вы не можете удалять свои сообщения
Вы не можете добавлять вложения

Перейти:  
Для Мосгорсуда, Роскомнадзора и рекламодателей: mosgorsud-torrent[собачка]yandex.ru
 Вход
ppkBB3cker v.2 © 2008-2014 @ PPK
[ Time : 0.041s | 15 Queries | GZIP : Off ]

cron