img image001 image001 image001 image001 image001 image001 image001 image001 image001 image001 image001 image001 image001 image001 image001

Planets Sun Sun Sun
Статистика раздачи
Автор: Nickolas3434 | Размер: 19.3 ГБ | Добавлен: 23 фев 2014
Раздают: 10    Качают: 6
Скачать торрент
Скачать торрент
Описание торрента

СообщениеДобавлено: 23 фев 2014 

XXII Зимние Олимпийские игры 2014. Сноуборд. Параллельный слалом. Мужчины, Женщины. 1/8, 1/4, 1/2, Финал. НТВ+



Вид спорта: Сноуборд
Дата/Год выпуска: 22.02.14
Язык комментариев: русский

Автор записи: SashaR.

Качество: DVB-S2 Remux
Формат видео: TS
Видео: AVC, 1920x1080, 16:9, 15.2 Mbps, 25 fps
Аудио: MP2, 192 kbps, 48 kHz, 2 channels
F:ОлимпиадаСноуборд. Параллельный слалом. Мужчины, Женщины.ts
General #17
ID : 17 (0x11)
Complete name : F:ОлимпиадаСноуборд. Параллельный слалом. Мужчины, Женщины.ts
Format : MPEG-TS
File size : 19.3 GiB
Duration : 2h 50mn
Overall bit rate mode : Variable
Overall bit rate : 16.2 Mbps
Video #301
ID : 301 (0x12D)
Menu ID : 17101 (0x42CD)
Format : AVC
Format/Info : Advanced Video Codec
Format profile : High@L4.0
Format settings, CABAC : Yes
Format settings, ReFrames : 3 frames
Codec ID : 27
Duration : 2h 50mn
Bit rate : 15.2 Mbps
Width : 1 920 pixels
Height : 1 080 pixels
Display aspect ratio : 16:9
Frame rate : 25.000 fps
Standard : Component
Color space : YUV
Chroma subsampling : 4:2:0
Bit depth : 8 bits
Scan type : Interlaced
Scan order : Top Field First
Bits/(Pixel*Frame) : 0.293
Stream size : 18.1 GiB (94%)
Color primaries : BT.709
Transfer characteristics : BT.709
Matrix coefficients : BT.709
Audio #401
ID : 401 (0x191)
Menu ID : 17101 (0x42CD)
Format : MPEG Audio
Format version : Version 1
Format profile : Layer 2
Codec ID : 4
Duration : 2h 50mn
Bit rate mode : Constant
Bit rate : 192 Kbps
Channel count : 2 channels
Sampling rate : 48.0 KHz
Compression mode : Lossy
Delay relative to video : 60ms
Stream size : 235 MiB (1%)
Language : Russian
Language, more info : Clean effects

02:50:59






   Похожие торренты   Торрент   Размер 
В этой теме нет новых непрочитанных сообщений. XXII зимние Олимпийские игры. Сноуборд. Параллельный слалом. Мужчины, женщины. 1/8, 1/4, 1/2, финал [Спортхит HD] [22.02] (2014) HDTV 1080i

2 | 3

19.34 ГБ

В этой теме нет новых непрочитанных сообщений. XXII зимние Олимпийские игры. Сноуборд. Параллельный слалом. Мужчины, Женщины. Квалификация [Спортхит] [22.02] (2014) HDTV 1080i

3 | 3

14.73 ГБ

В этой теме нет новых непрочитанных сообщений. XXII зимние Олимпийские игры. Сноуборд. Параллельный слалом. Мужчины, женщины. Финалы [Россия HD] [22.02] (2014) HDTV 1080i

6 | 5

10.94 ГБ

В этой теме нет новых непрочитанных сообщений. XXII зимние Олимпийские игры. Сноуборд. Гигантский параллельный слалом. Мужчины, Женщины. Финалы [HD Спорт] [19.02] (2014) HDTV 1080i

39 | 46

11.96 ГБ

В этой теме нет новых непрочитанных сообщений. XXII зимние Олимпийские игры. Сноуборд. Параллельный слалом. Мужчины, женщины. 1/8, 1/4, 1/2, финал [22.02] (2014) Stream 720p

28 | 17

2.56 ГБ

В этой теме нет новых непрочитанных сообщений. XXII Зимние Олимпийские игры. Сноуборд. Хафпайп. Финал. Женщины [Спортхит HD] [12.02] (2014) HDTV 1080i

58 | 25

7.45 ГБ

В этой теме нет новых непрочитанных сообщений. XXII зимние Олимпийские игры. Сноуборд. Мужчины и женщины. Параллельный гигантский слалом [Перший] [19.02] (2014) DVBRip

121 | 20

925.8 МБ




Вы не можете начинать темы
Вы не можете отвечать на сообщения
Вы не можете редактировать свои сообщения
Вы не можете удалять свои сообщения
Вы не можете добавлять вложения

Перейти:  
Для Мосгорсуда, Роскомнадзора и рекламодателей: mosgorsud-torrent[собачка]yandex.ru
 Вход
ppkBB3cker v.2 © 2008-2014 @ PPK
[ Time : 0.041s | 15 Queries | GZIP : Off ]

Торрент трекер RUTOR.IN, Не можете зайти на rutor.org? Какой новый адрес рутор? Какое зеркало рутор? Не работает rutor.org и зеркала? Тогда наш торрент специально для вас. Rutor.in неофициальное зеркало rutor. В случае если у Вас заблокирован rutor или вдруг Вы не можете на него зайти, то Вы без труда сможете скачать бесплатно и без рекламы последние новинки кино, игр, сериалов и прочего у нас, на Rutor.in. Не нужно использовать прокси, чтобы зайти на рутор, достаточно воспользоваться нашим ресурсом. Все новые фильмы, игры, сериалы, книги и музыка за 2013 и 2014 годы через торрент бесплатно. Скачивайте фильмы в хорошем качестве, игры для пк, xbox, playstation без регистрации. У нас вы найдете новые Зарубежные сериалы и Русские сериалы 2013, 2014, 2015 годов. Оставайтесь с нами, качайте любимые фильмы, игры, сериалы, книги и музыку.