img image001 image001 image001 image001 image001 image001 image001 image001 image001 image001 image001 image001 image001 image001 image001

Planets Sun Sun Sun
Статистика раздачи
Автор: Nickolas3434 | Размер: 1.81 ГБ | Добавлен: 23 фев 2014
Раздают: 47    Качают: 21
Скачать торрент
Скачать торрент
Описание торрента

СообщениеДобавлено: 23 фев 2014 

XXII Зимние Олимпийские Игры 2014. Сноуборд. Параллельный слалом. Мужчины, женщины. Финалы

Вид спорта: Сноуборд
Комментарий: Профессиональный
Язык комментариев: Русский (Владимир Стогниенко)
Описание: XXII Зимние Олимпийские Игры 2014. Сноуборд. Параллельный слалом. Мужчины, женщины. Финалы.

Присутствует цветочная церемония и некоторые квалификационные заезды перед финалами.

Из записи выпала вторая попытка второго полуфинала у женщин по техническим причинам.

Автор рипа: sanchez2011

Качество: HDTVRip
Формат: AVI
Видео кодек: XviD
Аудио кодек: MP3
Видео: MPEG4 Visual (H263) 704x400 (16:9) 1500kbps 25fps
Аудио: MPEG Audio Layer 3 48000Hz stereo 128kbps

Все результаты соревнований

Продолжительность: 02:37:53


General
Complete name : E:Олимпиада 2014XXII Зимние Олимпийские Игры 2014. 22.02.2014 Сноуборд. Параллельный слалом. Мужчины, женщины. Финалы.avi
Format : AVI
Format/Info : Audio Video Interleave
File size : 1.81 GiB
Duration : 2h 37mn
Overall bit rate : 1 637 Kbps
Writing application : VirtualDubMod 1.5.10.2 (build 2540/release)
Writing library : VirtualDubMod build 2540/release

Video
ID : 0
Format : MPEG-4 Visual
Format profile : Advanced Simple@L5
Format settings, BVOP : 2
Format settings, QPel : No
Format settings, GMC : No warppoints
Format settings, Matrix : Default (H.263)
Codec ID : XVID
Codec ID/Hint : XviD
Duration : 2h 37mn
Bit rate : 1 500 Kbps
Width : 704 pixels
Height : 400 pixels
Display aspect ratio : 16:9
Frame rate : 25.000 fps
Color space : YUV
Chroma subsampling : 4:2:0
Bit depth : 8 bits
Scan type : Progressive
Compression mode : Lossy
Bits/(Pixel*Frame) : 0.213
Stream size : 1.65 GiB (92%)
Writing library : XviD 64

Audio
ID : 1
Format : MPEG Audio
Format version : Version 1
Format profile : Layer 3
Mode : Joint stereo
Codec ID : 55
Codec ID/Hint : MP3
Duration : 2h 37mn
Bit rate mode : Constant
Bit rate : 128 Kbps
Channel(s) : 2 channels
Sampling rate : 48.0 KHz
Compression mode : Lossy
Stream size : 145 MiB (8%)
Alignment : Aligned on interleaves
Interleave, duration : 40 ms (1.00 video frame)
Interleave, preload duration : 504 ms
Writing library : LAME3.100



   Похожие торренты   Торрент   Размер 
В этой теме нет новых непрочитанных сообщений. XXII зимние Олимпийские игры. Сноуборд. Параллельный слалом. Мужчины, женщины. Финалы [Россия HD] [22.02] (2014) HDTV 1080i

6 | 5

10.94 ГБ

В этой теме нет новых непрочитанных сообщений. XXII зимние Олимпийские игры. Сноуборд. Гигантский параллельный слалом. Мужчины, Женщины. Финалы [HD Спорт] [19.02] (2014) HDTV 1080i

39 | 46

11.96 ГБ

В этой теме нет новых непрочитанных сообщений. XXII зимние Олимпийские игры. Сноуборд. Мужчины и женщины. Параллельный гигантский слалом [Перший] [19.02] (2014) DVBRip

121 | 20

925.8 МБ

В этой теме нет новых непрочитанных сообщений. XXII зимние Олимпийские игры. Сноуборд. Параллельный слалом. Мужчины, женщины. 1/8, 1/4, 1/2, финал [22.02] (2014) Stream 720p

28 | 17

2.56 ГБ

В этой теме нет новых непрочитанных сообщений. XXII зимние Олимпийские игры. Сноуборд. Параллельный слалом. Мужчины, Женщины. Квалификация [22.02] (2014) Stream 720р

18 | 4

1.87 ГБ

В этой теме нет новых непрочитанных сообщений. XXII зимние Олимпийские игры. Сноуборд. Параллельный слалом. Мужчины, женщины. 1/8, 1/4, 1/2, финал [Спортхит HD] [22.02] (2014) HDTV 1080i

2 | 3

19.34 ГБ

В этой теме нет новых непрочитанных сообщений. XXII зимние Олимпийские игры. Сноуборд. Параллельный слалом. Мужчины, Женщины. Квалификация [Спортхит] [22.02] (2014) HDTV 1080i

3 | 3

14.73 ГБ




Вы не можете начинать темы
Вы не можете отвечать на сообщения
Вы не можете редактировать свои сообщения
Вы не можете удалять свои сообщения
Вы не можете добавлять вложения

Перейти:  
Для Мосгорсуда, Роскомнадзора и рекламодателей: mosgorsud-torrent[собачка]yandex.ru
 Вход
ppkBB3cker v.2 © 2008-2014 @ PPK
[ Time : 0.041s | 15 Queries | GZIP : Off ]

Торрент трекер RUTOR.IN, Не можете зайти на rutor.org? Какой новый адрес рутор? Какое зеркало рутор? Не работает rutor.org и зеркала? Тогда наш торрент специально для вас. Rutor.in неофициальное зеркало rutor. В случае если у Вас заблокирован rutor или вдруг Вы не можете на него зайти, то Вы без труда сможете скачать бесплатно и без рекламы последние новинки кино, игр, сериалов и прочего у нас, на Rutor.in. Не нужно использовать прокси, чтобы зайти на рутор, достаточно воспользоваться нашим ресурсом. Все новые фильмы, игры, сериалы, книги и музыка за 2013 и 2014 годы через торрент бесплатно. Скачивайте фильмы в хорошем качестве, игры для пк, xbox, playstation без регистрации. У нас вы найдете новые Зарубежные сериалы и Русские сериалы 2013, 2014, 2015 годов. Оставайтесь с нами, качайте любимые фильмы, игры, сериалы, книги и музыку.