img image001 image001 image001 image001 image001 image001 image001 image001 image001 image001 image001 image001 image001 image001 image001

Planets Sun Sun Sun
Статистика раздачи
Автор: Nickolas3434 | Размер: 1.7 ГБ | Добавлен: 24 фев 2014
Раздают: 315    Качают: 271
Скачать торрент
Скачать торрент
Описание торрента

СообщениеДобавлено: 24 фев 2014 

Церемония закрытия XXII зимних Олимпийских игр в Сочи
Комментарий: Профессиональный
Язык комментариев: Русский (Владимир Гомельский и Кирилл Набутов)
Продолжительность: 02:12:25

Описание: Торжественная Церемония закрытия XXII зимних Олимпийских игр 2014 в Сочи.

Автор рипа: sanchez2011

Качество: SATRip
Формат: AVI
Видео кодек: XviD
Аудио кодек: MP3
Видео: MPEG-4 Visual (H263) 720x400 (16:9) 25.00fps 1700kbps
Аудио: MPEG Audio Layer 3 48000Hz stereo 128kbps





General
Complete name : E:Олимпиада 2014Церемония закрытия XXII зимних Олимпийских игр в Сочи.avi
Format : AVI
Format/Info : Audio Video Interleave
File size : 1.70 GiB
Duration : 2h 12mn
Overall bit rate : 1 836 Kbps
Writing application : VirtualDubMod 1.5.10.2 (build 2540/release)
Writing library : VirtualDubMod build 2540/release

Video
ID : 0
Format : MPEG-4 Visual
Format profile : Advanced Simple@L5
Format settings, BVOP : 2
Format settings, QPel : No
Format settings, GMC : No warppoints
Format settings, Matrix : Default (H.263)
Codec ID : XVID
Codec ID/Hint : XviD
Duration : 2h 12mn
Bit rate : 1 698 Kbps
Width : 720 pixels
Height : 400 pixels
Display aspect ratio : 16:9
Frame rate : 25.000 fps
Color space : YUV
Chroma subsampling : 4:2:0
Bit depth : 8 bits
Scan type : Progressive
Compression mode : Lossy
Bits/(Pixel*Frame) : 0.236
Stream size : 1.57 GiB (92%)
Writing library : XviD 64

Audio
ID : 1
Format : MPEG Audio
Format version : Version 1
Format profile : Layer 3
Mode : Joint stereo
Mode extension : MS Stereo
Codec ID : 55
Codec ID/Hint : MP3
Duration : 2h 12mn
Bit rate mode : Constant
Bit rate : 128 Kbps
Channel(s) : 2 channels
Sampling rate : 48.0 KHz
Compression mode : Lossy
Stream size : 121 MiB (7%)
Alignment : Aligned on interleaves
Interleave, duration : 40 ms (1.00 video frame)
Interleave, preload duration : 504 ms
Writing library : LAME3.100



   Похожие торренты   Торрент   Размер 
В этой теме нет новых непрочитанных сообщений. XXII зимние Олимпийские игры. Сочи. Церемония открытия + Церемония Закрытия [Спорт 1HD] (2014) HDTV 1080i

336 | 86

12.59 ГБ

В этой теме нет новых непрочитанных сообщений. XXII зимние Олимпийские игры. Сочи. Церемония закрытия [Спорт] (2014) DVB

70 | 54

6.73 ГБ

В этой теме нет новых непрочитанных сообщений. XXII Зимние Олимпийские игры. Сочи. Церемония закрытия [ARD HD] (2014) Stream 720p

46 | 5

4.72 ГБ

В этой теме нет новых непрочитанных сообщений. XXII зимние Олимпийские игры. Сочи. Церемония закрытия [Перший] (2014) IPTV

90 | 24

2.52 ГБ

В этой теме нет новых непрочитанных сообщений. XXII зимние Олимпийские игры. Сочи. Церемония закрытия [Спорт 1 HD] (2014) HDTV 1080i

103 | 72

12.99 ГБ

В этой теме нет новых непрочитанных сообщений. XXII зимние Олимпийские игры. Сочи. Церемония закрытия [HD FEED] (2014) HDTV 1080i

60 | 24

39.65 ГБ

В этой теме нет новых непрочитанных сообщений. XXII Зимние Олимпийские игры. Сочи. Церемония закрытия [HD Спорт] (2014) HDTV 1080i

111 | 156

18.77 ГБ




Вы не можете начинать темы
Вы не можете отвечать на сообщения
Вы не можете редактировать свои сообщения
Вы не можете удалять свои сообщения
Вы не можете добавлять вложения

Перейти:  
Для Мосгорсуда, Роскомнадзора и рекламодателей: mosgorsud-torrent[собачка]yandex.ru
 Вход
ppkBB3cker v.2 © 2008-2014 @ PPK
[ Time : 0.038s | 15 Queries | GZIP : Off ]

cron