img image001 image001 image001 image001 image001 image001 image001 image001 image001 image001 image001 image001 image001 image001 image001

Planets Sun Sun Sun
Статистика раздачи
Автор: Nickolas3434 | Размер: 20.87 ГБ | Добавлен: 25 фев 2014
Раздают: 0    Качают: 3
Скачать торрент
Скачать торрент
Описание торрента

СообщениеДобавлено: 25 фев 2014 

XXII Зимние Олимпийские игры 2014. Бобслей. Мужчины. Четверки. Заезд 3 и 4

Вид спорта: Бобслей
Дата/Год выпуска: 23.02.14
Язык комментариев: русский

Автор записи: SashaR.

Качество: DVB-S2 Remux
Формат видео: TS
Видео: AVC, 1920x1080, 16:9, 15.2 Mbps, 25 fps
Аудио: MP2, 192 kbps, 48 kHz, 2 channels
F:ОлимпиадаБобслей. Мужчины. Четверки. Заезд 3 и 4 (НТВ+).ts
General #17
ID : 17 (0x11)
Complete name : F:ОлимпиадаБобслей. Мужчины. Четверки. Заезд 3 и 4 (НТВ+).ts
Format : MPEG-TS
File size : 20.9 GiB
Duration : 3h 4mn
Overall bit rate mode : Constant
Overall bit rate : 16.2 Mbps
Video #301
ID : 301 (0x12D)
Menu ID : 17101 (0x42CD)
Format : AVC
Format/Info : Advanced Video Codec
Format profile : High@L4.0
Format settings, CABAC : Yes
Format settings, ReFrames : 3 frames
Codec ID : 27
Duration : 3h 4mn
Bit rate : 15.2 Mbps
Width : 1 920 pixels
Height : 1 080 pixels
Display aspect ratio : 16:9
Frame rate : 25.000 fps
Standard : Component
Color space : YUV
Chroma subsampling : 4:2:0
Bit depth : 8 bits
Scan type : Interlaced
Bits/(Pixel*Frame) : 0.292
Stream size : 19.6 GiB (94%)
Color primaries : BT.709
Transfer characteristics : BT.709
Matrix coefficients : BT.709
Audio #401
ID : 401 (0x191)
Menu ID : 17101 (0x42CD)
Format : MPEG Audio
Format version : Version 1
Format profile : Layer 2
Codec ID : 4
Duration : 48ms
Bit rate mode : Constant
Bit rate : 192 Kbps
Channel count : 2 channels
Sampling rate : 48.0 KHz
Compression mode : Lossy
Stream size : 1.13 KiB (0%)
Language : Russian
Language, more info : Clean effects

03:04:56






   Похожие торренты   Торрент   Размер 
В этой теме нет новых непрочитанных сообщений. XXII зимние Олимпийские игры. Бобслей. Мужчины. Четверки. Заезд 1-4 [ARD HD] [22-23.02] (2014) HDTV 1080i

3 | 6

7.98 ГБ

В этой теме нет новых непрочитанных сообщений. XXII Зимние Олимпийские игры. Бобслей. Четверки. Мужчины [03-04 попытки] [Спорт 1 HD] [23.02] (2014) HDTV 1080i от MediaClub

4 | 7

9.89 ГБ

В этой теме нет новых непрочитанных сообщений. XXII зимние Олимпийские игры. Бобслей. Мужчины. Четверки. Заезд 1 и 2 [22.02] (2014) Stream 720p

32 | 32

2.94 ГБ

В этой теме нет новых непрочитанных сообщений. XXII Зимние Олимпийские игры. Бобслей. Четверки. Мужчины [03-04 попытки] [Россия HD] [23.02] (2014) HDTV 1080i

12 | 3

9.06 ГБ

В этой теме нет новых непрочитанных сообщений. XXII Зимние Олимпийские игры. Бобслей. Четверки. Мужчины [04 попытка] [Россия HD] [23.02] (2014) HDTV 1080i

6 | 4

2.59 ГБ

В этой теме нет новых непрочитанных сообщений. XXII Зимние Олимпийские игры. Бобслей. Четверки. Мужчины [01-02 попытки] [Спорт] [22.02] (2014) SATRip от MediaClub

44 | 20

1.66 ГБ

В этой теме нет новых непрочитанных сообщений. XXII Зимние Олимпийские игры. Санный спорт. Мужчины на одноместных санях, заезд 4 [HD Спорт] [09.02] (2014) HDTV 1080i

11 | 3

10.56 ГБ




Вы не можете начинать темы
Вы не можете отвечать на сообщения
Вы не можете редактировать свои сообщения
Вы не можете удалять свои сообщения
Вы не можете добавлять вложения

Перейти:  
Для Мосгорсуда, Роскомнадзора и рекламодателей: mosgorsud-torrent[собачка]yandex.ru
 Вход
ppkBB3cker v.2 © 2008-2014 @ PPK
[ Time : 0.023s | 15 Queries | GZIP : Off ]

Торрент трекер RUTOR.IN, Не можете зайти на rutor.org? Какой новый адрес рутор? Какое зеркало рутор? Не работает rutor.org и зеркала? Тогда наш торрент специально для вас. Rutor.in неофициальное зеркало rutor. В случае если у Вас заблокирован rutor или вдруг Вы не можете на него зайти, то Вы без труда сможете скачать бесплатно и без рекламы последние новинки кино, игр, сериалов и прочего у нас, на Rutor.in. Не нужно использовать прокси, чтобы зайти на рутор, достаточно воспользоваться нашим ресурсом. Все новые фильмы, игры, сериалы, книги и музыка за 2013 и 2014 годы через торрент бесплатно. Скачивайте фильмы в хорошем качестве, игры для пк, xbox, playstation без регистрации. У нас вы найдете новые Зарубежные сериалы и Русские сериалы 2013, 2014, 2015 годов. Оставайтесь с нами, качайте любимые фильмы, игры, сериалы, книги и музыку.