img image001 image001 image001 image001 image001 image001 image001 image001 image001 image001 image001 image001 image001 image001 image001

Planets Sun Sun Sun
Статистика раздачи
Автор: Nickolas3434 | Размер: 528.01 МБ | Добавлен: 09 мар 2014
Раздают: 60    Качают: 8
Скачать торрент
Скачать торрент
Описание торрента

СообщениеДобавлено: 09 мар 2014 

Кубок Мира 2013-14. 7-й этап. Поклюка (Словения). Женщины. Гонка преследования 10 км

Вид спорта: Биатлон
Комментарий: Профессиональный
Язык комментариев: Русский (Дмитрий Губерниев)
Описание: Кубок Мира 2013-14. 7-й этап. Поклюка (Словения). Женщины. Гонка преследования 10 км.
Автор рипа: sanchez2011
Качество: SATRip
Формат: AVI
Видео кодек: XviD
Аудио кодек: MP3
Видео: MPEG-4 Visual (H263) 704x400 (16:9) 25.00fps 1700kbps
Аудио: MPEG Audio Layer 3 48000Hz mono 128kbps

Результаты

Продолжительность: 00:40:18


General
Complete name : E:TorrentБиатлон. Сезон 2013-20147-й этап. Поклюка (Словения)Кубок Мира 2013-14. 7-й этап. Поклюка (Словения). Женщины. Гонка преследования 10 км. Спорт 1.avi
Format : AVI
Format/Info : Audio Video Interleave
File size : 528 MiB
Duration : 40mn 18s
Overall bit rate : 1 831 Kbps
Writing application : VirtualDubMod 1.5.10.2 (build 2540/release)
Writing library : VirtualDubMod build 2540/release

Video
ID : 0
Format : MPEG-4 Visual
Format profile : Advanced Simple@L5
Format settings, BVOP : 2
Format settings, QPel : No
Format settings, GMC : No warppoints
Format settings, Matrix : Default (H.263)
Codec ID : XVID
Codec ID/Hint : XviD
Duration : 40mn 18s
Bit rate : 1 694 Kbps
Width : 720 pixels
Height : 400 pixels
Display aspect ratio : 16:9
Frame rate : 25.000 fps
Color space : YUV
Chroma subsampling : 4:2:0
Bit depth : 8 bits
Scan type : Progressive
Compression mode : Lossy
Bits/(Pixel*Frame) : 0.235
Stream size : 488 MiB (92%)
Writing library : XviD 64

Audio
ID : 1
Format : MPEG Audio
Format version : Version 1
Format profile : Layer 3
Mode : Joint stereo
Mode extension : MS Stereo
Codec ID : 55
Codec ID/Hint : MP3
Duration : 40mn 18s
Bit rate mode : Constant
Bit rate : 128 Kbps
Channel(s) : 2 channels
Sampling rate : 48.0 KHz
Compression mode : Lossy
Stream size : 36.9 MiB (7%)
Alignment : Aligned on interleaves
Interleave, duration : 40 ms (1.00 video frame)
Interleave, preload duration : 504 ms
Writing library : LAME3.100



   Похожие торренты   Торрент   Размер 
В этой теме нет новых непрочитанных сообщений. Биатлон. Кубок мира 2013/14. 7 этап. Гонка преследования. Женщины. Поклюка (Словения) [Спорт 1 HD] [08.03] (2014) HDTV 1080i от MediaClub

64 | 7

2.51 ГБ

В этой теме нет новых непрочитанных сообщений. Биатлон. Кубок мира 2013/14. 7 этап. Гонка преследования. Женщины. Поклюка (Словения) [Россия 2] [08.03] (2014) SATRip от MediaClub

97 | 6

614.58 МБ

В этой теме нет новых непрочитанных сообщений. Биатлон. Кубок Мира 2014-15. 3-й этап. Поклюка (Словения). Женщины. Гонка преследования 10 км (2014) HDTVRip

30 | 6

726.1 МБ

В этой теме нет новых непрочитанных сообщений. Биатлон. Кубок Мира 2014-15. 3-й этап. Поклюка (Словения). Женщины. Гонка преследования 10 км (2014) HDTV 1080i

12 | 3

4.39 ГБ

В этой теме нет новых непрочитанных сообщений. Биатлон. Кубок Мира 2014-15. 3-й этап. Поклюка (Словения). Женщины. Гонка преследования 10 км (2014) HDTVRip 720p | 50 FPS

52 | 17

1.38 ГБ

В этой теме нет новых непрочитанных сообщений. Биатлон. Кубок Мира 2012-13. 3-й этап. Поклюка (Словения). Женщины. Гонка преследования 10 км [Россия 2] [13.12] (2012) SATRip

0 | 1

490.89 МБ

В этой теме нет новых непрочитанных сообщений. Биатлон. Кубок Мира 2012-13. 3-й этап. Поклюка (Словения). Мужчины. Гонка преследования 12.5 км [Спорт 1] [15.12] (2012) HDTVRip

0 | 1

677.45 МБ




Вы не можете начинать темы
Вы не можете отвечать на сообщения
Вы не можете редактировать свои сообщения
Вы не можете удалять свои сообщения
Вы не можете добавлять вложения

Перейти:  
Для Мосгорсуда, Роскомнадзора и рекламодателей: mosgorsud-torrent[собачка]yandex.ru
 Вход
ppkBB3cker v.2 © 2008-2014 @ PPK
[ Time : 0.017s | 16 Queries | GZIP : On ]

Торрент трекер RUTOR.IN, Не можете зайти на rutor.org? Какой новый адрес рутор? Какое зеркало рутор? Не работает rutor.org и зеркала? Тогда наш торрент специально для вас. Rutor.in неофициальное зеркало rutor. В случае если у Вас заблокирован rutor или вдруг Вы не можете на него зайти, то Вы без труда сможете скачать бесплатно и без рекламы последние новинки кино, игр, сериалов и прочего у нас, на Rutor.in. Не нужно использовать прокси, чтобы зайти на рутор, достаточно воспользоваться нашим ресурсом. Все новые фильмы, игры, сериалы, книги и музыка за 2013 и 2014 годы через торрент бесплатно. Скачивайте фильмы в хорошем качестве, игры для пк, xbox, playstation без регистрации. У нас вы найдете новые Зарубежные сериалы и Русские сериалы 2013, 2014, 2015 годов. Оставайтесь с нами, качайте любимые фильмы, игры, сериалы, книги и музыку.