img image001 image001 image001 image001 image001 image001 image001 image001 image001 image001 image001 image001 image001 image001 image001

Planets Sun Sun Sun
Статистика раздачи
Автор: Nickolas3434 | Размер: 42.14 ГБ | Добавлен: 10 мар 2014
Раздают: 0    Качают: 18
Скачать торрент
Скачать торрент
Описание торрента

СообщениеДобавлено: 10 мар 2014 

Кубок Мира 2013-14. 7-й этап. Поклюка (Словения)

Вид спорта: Биатлон
Дата/Год выпуска: 06.03.14
Язык комментариев: русский

Автор записи: SashaR.
Кубок Мира 2013-14. 7-й этап. Поклюка (Словения)
Кубок Мира 2013-14. 7-й этап. Поклюка (Словения). Женщины. Гонка преследования (Eurosport HD).ts 2.61 GB (2804152352)
Кубок Мира 2013-14. 7-й этап. Поклюка (Словения). Женщины. Гонка преследования (Спорт 1 HD).ts 3.32 GB (3573059944)
Кубок Мира 2013-14. 7-й этап. Поклюка (Словения). Женщины. Масс-старт (Eurosport HD).ts 2.74 GB (2943263516)
Кубок Мира 2013-14. 7-й этап. Поклюка (Словения). Женщины. Спринт (Eurosport HD).ts 4.52 GB (4858941780)
Кубок Мира 2013-14. 7-й этап. Поклюка (Словения). Женщины. Спринт (Спорт 1 HD).ts 6.58 GB (7074123032)
Кубок Мира 2013-14. 7-й этап. Поклюка (Словения). Мужчины. Гонка преследования (Eurosport HD).ts 2.37 GB (2550680976)
Кубок Мира 2013-14. 7-й этап. Поклюка (Словения). Мужчины. Гонка преследования (Спорт 1 HD).ts 4.95 GB (5320176280)
Кубок Мира 2013-14. 7-й этап. Поклюка (Словения). Мужчины. Масс-старт (Eurosport HD).ts 3.40 GB (3655794608)
Кубок Мира 2013-14. 7-й этап. Поклюка (Словения). Мужчины. Масс-старт (Спорт 1 HD).ts 4.53 GB (4864972444)
Кубок Мира 2013-14. 7-й этап. Поклюка (Словения). Мужчины. Спринт (Спорт 1 HD).ts 7.08 GB (7602646492)

Качество: DVB-S2 Remux
Формат видео: TS
Видео: AVC, 1920x1080 (16:9), 8 496 Kbp, 25 fps
Аудио: MP2, 192 Kbps, 48.0 kHz, 2 channels
E:РаздачиКубок Мира 2013-14. 7-й этап. Поклюка (Словения)Кубок Мира 2013-14. 7-й этап. Поклюка (Словения). Женщины. Спринт (Eurosport HD).ts
General #6
ID : 6 (0x6)
Complete name : E:РаздачиКубок Мира 2013-14. 7-й этап. Поклюка (Словения)Кубок Мира 2013-14. 7-й этап. Поклюка (Словения). Женщины. Спринт (Eurosport HD).ts
Format : MPEG-TS
File size : 4.53 GiB
Duration : 1h 10mn
Overall bit rate mode : Variable
Overall bit rate : 9 141 Kbps
Video #324
ID : 324 (0x144)
Menu ID : 12104 (0x2F48)
Format : AVC
Format/Info : Advanced Video Codec
Format profile : High@L4.0
Format settings, CABAC : Yes
Format settings, ReFrames : 3 frames
Codec ID : 27
Duration : 1h 10mn
Bit rate : 8 496 Kbps
Width : 1 920 pixels
Height : 1 080 pixels
Display aspect ratio : 16:9
Frame rate : 25.000 fps
Standard : Component
Color space : YUV
Chroma subsampling : 4:2:0
Bit depth : 8 bits
Scan type : Interlaced
Scan order : Top Field First
Bits/(Pixel*Frame) : 0.164
Stream size : 4.20 GiB (93%)
Color primaries : BT.709
Transfer characteristics : BT.709
Matrix coefficients : BT.709
Audio #404
ID : 404 (0x194)
Menu ID : 12104 (0x2F48)
Format : MPEG Audio
Format version : Version 1
Format profile : Layer 2
Codec ID : 4
Duration : 1h 10mn
Bit rate mode : Constant
Bit rate : 192 Kbps
Channel count : 2 channels
Sampling rate : 48.0 KHz
Compression mode : Lossy
Delay relative to video : 52ms
Stream size : 97.3 MiB (2%)
Language : Russian
Language, more info : Clean effects

E:РаздачиКубок Мира 2013-14. 7-й этап. Поклюка (Словения)Кубок Мира 2013-14. 7-й этап. Поклюка (Словения). Женщины. Спринт (Спорт 1 HD).ts
General #6
ID : 6 (0x6)
Complete name : E:РаздачиКубок Мира 2013-14. 7-й этап. Поклюка (Словения)Кубок Мира 2013-14. 7-й этап. Поклюка (Словения). Женщины. Спринт (Спорт 1 HD).ts
Format : MPEG-TS
File size : 6.59 GiB
Duration : 1h 19mn
Overall bit rate mode : Variable
Overall bit rate : 11.9 Mbps
Video #303
ID : 303 (0x12F)
Menu ID : 20103 (0x4E87)
Format : AVC
Format/Info : Advanced Video Codec
Format profile : High@L4.0
Format settings, CABAC : Yes
Format settings, ReFrames : 3 frames
Codec ID : 27
Duration : 1h 19mn
Bit rate : 11.1 Mbps
Width : 1 920 pixels
Height : 1 080 pixels
Display aspect ratio : 16:9
Frame rate : 25.000 fps
Standard : Component
Color space : YUV
Chroma subsampling : 4:2:0
Bit depth : 8 bits
Scan type : Interlaced
Scan order : Top Field First
Bits/(Pixel*Frame) : 0.215
Stream size : 6.16 GiB (93%)
Color primaries : BT.709
Transfer characteristics : BT.709
Matrix coefficients : BT.709
Audio #403
ID : 403 (0x193)
Menu ID : 20103 (0x4E87)
Format : MPEG Audio
Format version : Version 1
Format profile : Layer 2
Codec ID : 4
Duration : 1h 19mn
Bit rate mode : Constant
Bit rate : 192 Kbps
Channel count : 2 channels
Sampling rate : 48.0 KHz
Compression mode : Lossy
Delay relative to video : 45ms
Stream size : 109 MiB (2%)
Language : Russian

Кубок Мира 2013-14. 7-й этап. Поклюка (Словения). Женщины. Спринт (Спорт 1 HD) - 01:19:11
Кубок Мира 2013-14. 7-й этап. Поклюка (Словения). Женщины. Спринт (Eurosport HD) - 01:10:22







   Похожие торренты   Торрент   Размер 
В этой теме нет новых непрочитанных сообщений. Биатлон. Кубок мира 2013/14. 7 этап. Спринт. Мужчины. Поклюка (Словения) [Спорт 1 HD] [06.03] (2014) HDTV 1080i от MediaClub

29 | 3

4.88 ГБ

В этой теме нет новых непрочитанных сообщений. Биатлон. Кубок мира 2013/14. 7 этап. Спринт. Женщины. Поклюка (Словения) [Спорт 1 HD] [06.03] (2014) HDTV 1080i от MediaClub

43 | 3

4.46 ГБ

В этой теме нет новых непрочитанных сообщений. Биатлон. Кубок мира 2013/14. 7 этап. Гонка преследования. Женщины. Поклюка (Словения) [Спорт 1 HD] [08.03] (2014) HDTV 1080i от MediaClub

64 | 7

2.51 ГБ

В этой теме нет новых непрочитанных сообщений. Биатлон. Кубок Мира 2014-15. 3-й этап. Поклюка (Словения). Мужчины. Спринт 10 км [Eurosport HD] (2014) HDTV 1080i

12 | 4

4.13 ГБ

В этой теме нет новых непрочитанных сообщений. Биатлон. Кубок Мира 2014-15. 3-й этап. Поклюка (Словения). Мужчины. Масс-старт 15 км [Eurosport HD] (2014) HDTV 1080i

39 | 2

2.61 ГБ

В этой теме нет новых непрочитанных сообщений. Биатлон. Кубок Мира 2015-16. 3-й этап. Поклюка (Словения). Мужчины. Гонка преследования 12.5 км [Eurosport HD] [19.12] (2015) HDTV 1080i

21 | 3

3.41 ГБ

В этой теме нет новых непрочитанных сообщений. Биатлон. Кубок Мира 2012-13. 3-й этап. Поклюка (Словения). Мужчины. Масс - старт [Eurosport HD] [16.12] (2012) HDTV 1080i

0 | 1

2.91 ГБ




Вы не можете начинать темы
Вы не можете отвечать на сообщения
Вы не можете редактировать свои сообщения
Вы не можете удалять свои сообщения
Вы не можете добавлять вложения

Перейти:  
Для Мосгорсуда, Роскомнадзора и рекламодателей: mosgorsud-torrent[собачка]yandex.ru
 Вход
ppkBB3cker v.2 © 2008-2014 @ PPK
[ Time : 0.051s | 15 Queries | GZIP : Off ]

Торрент трекер RUTOR.IN, Не можете зайти на rutor.org? Какой новый адрес рутор? Какое зеркало рутор? Не работает rutor.org и зеркала? Тогда наш торрент специально для вас. Rutor.in неофициальное зеркало rutor. В случае если у Вас заблокирован rutor или вдруг Вы не можете на него зайти, то Вы без труда сможете скачать бесплатно и без рекламы последние новинки кино, игр, сериалов и прочего у нас, на Rutor.in. Не нужно использовать прокси, чтобы зайти на рутор, достаточно воспользоваться нашим ресурсом. Все новые фильмы, игры, сериалы, книги и музыка за 2013 и 2014 годы через торрент бесплатно. Скачивайте фильмы в хорошем качестве, игры для пк, xbox, playstation без регистрации. У нас вы найдете новые Зарубежные сериалы и Русские сериалы 2013, 2014, 2015 годов. Оставайтесь с нами, качайте любимые фильмы, игры, сериалы, книги и музыку.
cron