img image001 image001 image001 image001 image001 image001 image001 image001 image001 image001 image001 image001 image001 image001 image001

Planets Sun Sun Sun
Статистика раздачи
Автор: Nickolas3434 | Размер: 6.75 ГБ | Добавлен: 14 мар 2014
Раздают: 29    Качают: 18
Скачать торрент
Скачать торрент
Описание торрента

СообщениеДобавлено: 14 мар 2014 

Кубок Мира 2013-14. 8-й этап. Контиолахти (Финляндия)
Спринт 10 км. Мужчины



Вид спорта: Биатлон
Комментарий: русский (Дмитрий Губерниев)
Описание: КМ-2014. Этап 8 (Контиолахти, Финляндия)
Спринт 10 км. Мужчины
13 марта 2014 года, четверг. 18:10 мск

Автор записи: Striker



Качество: HDTV
Формат: TS
Видео: 1920x1080i, H.264, 25 fps, ~ 11000kbps
Аудио: MP2, 48 kHz, 2 ch, ~192.00 kbps

Format : MPEG-TS
File size : 6.75 GiB
Duration : 1h 21mn
Overall bit rate mode : Variable
Overall bit rate : 11.8 Mbps

Video
ID : 303 (0x12F)
Menu ID : 1 (0x1)
Format : AVC
Format/Info : Advanced Video Codec
Format profile : High@L4.0
Format settings, CABAC : Yes
Format settings, ReFrames : 3 frames
Codec ID : 27
Duration : 1h 21mn
Bit rate : 11.0 Mbps
Width : 1 920 pixels
Height : 1 080 pixels
Display aspect ratio : 16:9
Frame rate : 25.000 fps
Standard : Component
Color space : YUV
Chroma subsampling : 4:2:0
Bit depth : 8 bits
Scan type : Interlaced
Scan order : Top Field First
Bits/(Pixel*Frame) : 0.213
Stream size : 6.31 GiB (93%)
Color primaries : BT.709
Transfer characteristics : BT.709
Matrix coefficients : BT.709

Audio
ID : 403 (0x193)
Menu ID : 1 (0x1)
Format : MPEG Audio
Format version : Version 1
Format profile : Layer 2
Codec ID : 3
Duration : 1h 21mn
Bit rate mode : Constant
Bit rate : 192 Kbps
Channel count : 2 channels
Sampling rate : 48.0 KHz
Compression mode : Lossy
Stream size : 112 MiB (2%)
Language : Russian

01:21:46








   Похожие торренты   Торрент   Размер 
В этой теме нет новых непрочитанных сообщений. Биатлон. Кубок мира 2013/14. 8 этап. Спринт. Женщины. Контиолахти (Финляндия) [Спорт 1 HD] [13.03] (2014) HDTV 1080i

56 | 18

6.46 ГБ

В этой теме нет новых непрочитанных сообщений. Биатлон. Кубок мира 2013/14. 8 этап. Спринт 10 км. Мужчины. Контиолахти (Финляндия) [Спорт 1 HD] [15.03] (2014) DVB

44 | 6

1.52 ГБ

В этой теме нет новых непрочитанных сообщений. Биатлон. Кубок мира 2013/14. 8 этап. Спринт 10 км. Мужчины. Контиолахти (Финляндия) [Спорт 1 HD] [15.03] (2014) HDTVRip

67 | 10

856.7 МБ

В этой теме нет новых непрочитанных сообщений. Биатлон. Кубок мира 2013/14. 8 этап. Спринт. Мужчины. Контиолахти (Финляндия) [Спорт 1 HD] [13.03] (2014) HDTVRip

126 | 30

983.5 МБ

В этой теме нет новых непрочитанных сообщений. Биатлон. Кубок мира 2013/14. 8 этап. Спринт. Мужчины. Контиолахти (Финляндия) [Спорт 1 HD] [13.03] (2014) HDTVRip 720р | 50 fps

39 | 22

2.66 ГБ

В этой теме нет новых непрочитанных сообщений. Биатлон. Кубок мира 2013/14. 8 этап. Спринт 10 км. Мужчины. Контиолахти (Финляндия) [Спорт 1 HD] [15.03] (2014) HDTVRip 720р | 50 fps

11 | 4

2.32 ГБ

В этой теме нет новых непрочитанных сообщений. Биатлон. Кубок Мира 2016-17. 8-й этап. Контиолахти (Финляндия). Мужчины. Спринт [10.03] (2017) HDTV 1080i

17 | 18

4.82 ГБ




Вы не можете начинать темы
Вы не можете отвечать на сообщения
Вы не можете редактировать свои сообщения
Вы не можете удалять свои сообщения
Вы не можете добавлять вложения

Перейти:  
Для Мосгорсуда, Роскомнадзора и рекламодателей: mosgorsud-torrent[собачка]yandex.ru
 Вход
ppkBB3cker v.2 © 2008-2014 @ PPK
[ Time : 0.046s | 16 Queries | GZIP : Off ]

cron