img image001 image001 image001 image001 image001 image001 image001 image001 image001 image001 image001 image001 image001 image001 image001

Planets Sun Sun Sun
Статистика раздачи
Автор: Nickolas3434 | Размер: 2.66 ГБ | Добавлен: 14 мар 2014
Раздают: 39    Качают: 22
Скачать торрент
Скачать торрент
Описание торрента

СообщениеДобавлено: 14 мар 2014 

Кубок Мира 2013-14. 8-й этап. Контиолахти (Финляндия)
Спринт 10 км. Мужчины



Вид спорта: Биатлон
Комментарий: русский (Дмитрий Губерниев)
Описание: КМ-2014. Этап 8 (Контиолахти, Финляндия)
Спринт 10 км. Мужчины
13 марта 2014 года, четверг. 18:10 мск

Автор записи/рипа: Striker



Качество: HDTVRip
Формат: MKV
Видео кодек: H.264
Аудио кодек: AC3
Видео: 1280x720 (16:9), 50 fps, ~4500 Kbps
Аудио: 48 kHz, 2 channels, 192 Kbps

Format : Matroska
Format version : Version 2
File size : 2.66 GiB
Duration : 1h 20mn
Overall bit rate : 4 701 Kbps
Movie name : Веб-камера, TV или другое видеоустройство
Writing application : Lavf54.63.104
Writing library : Lavf54.63.104

Video
ID : 1
Format : AVC
Format/Info : Advanced Video Codec
Format profile : High@L3.2
Format settings, CABAC : Yes
Format settings, ReFrames : 3 frames
Codec ID : V_MPEG4/ISO/AVC
Duration : 1h 20mn
Bit rate : 4 415 Kbps
Width : 1 280 pixels
Height : 720 pixels
Display aspect ratio : 16:9
Frame rate mode : Constant
Frame rate : 50.000 fps
Color space : YUV
Chroma subsampling : 4:2:0
Bit depth : 8 bits
Scan type : Progressive
Bits/(Pixel*Frame) : 0.096
Stream size : 2.50 GiB (94%)
Default : Yes
Forced : No

Audio
ID : 2
Format : AC-3
Format/Info : Audio Coding 3
Mode extension : CM (complete main)
Format settings, Endianness : Big
Codec ID : A_AC3
Duration : 1h 20mn
Bit rate mode : Constant
Bit rate : 192 Kbps
Channel count : 2 channels
Channel positions : Front: L R
Sampling rate : 48.0 KHz
Bit depth : 16 bits
Compression mode : Lossy
Stream size : 111 MiB (4%)
Default : Yes
Forced : No

01:20:54








   Похожие торренты   Торрент   Размер 
В этой теме нет новых непрочитанных сообщений. Биатлон. Кубок мира 2013/14. 8 этап. Спринт 10 км. Мужчины. Контиолахти (Финляндия) [Спорт 1 HD] [15.03] (2014) HDTVRip 720р | 50 fps

11 | 4

2.32 ГБ

В этой теме нет новых непрочитанных сообщений. Биатлон. Кубок мира 2013/14. 8 этап. Спринт 10 км. Мужчины. Контиолахти (Финляндия) [Спорт 1 HD] [15.03] (2014) HDTVRip

67 | 10

856.7 МБ

В этой теме нет новых непрочитанных сообщений. Биатлон. Кубок мира 2013/14. 8 этап. Спринт. Мужчины. Контиолахти (Финляндия) [Спорт 1 HD] [13.03] (2014) HDTVRip

126 | 30

983.5 МБ

В этой теме нет новых непрочитанных сообщений. Биатлон. Кубок мира 2013/14. 8 этап. Спринт 7,5 км. Женщины. Контиолахти (Финляндия) [Спорт 1 HD] [15.03] (2014) HDTVRip 720р | 50 fps

16 | 14

2.27 ГБ

В этой теме нет новых непрочитанных сообщений. Биатлон. Кубок мира 2013/14. 8 этап. Спринт 10 км. Мужчины. Контиолахти (Финляндия) [Спорт 1 HD] [15.03] (2014) DVB

44 | 6

1.52 ГБ

В этой теме нет новых непрочитанных сообщений. Биатлон. Кубок мира 2013/14. 8 этап. Спринт. Мужчины. Контиолахти (Финляндия) [Спорт 1 HD] [13.03] (2014) HDTV 1080i

29 | 18

6.75 ГБ

В этой теме нет новых непрочитанных сообщений. Биатлон. Кубок мира 2013/14. 8 этап. Спринт. Женщины. Контиолахти (Финляндия) [Спорт 1 HD] [13.03] (2014) DVB

59 | 18

1.78 ГБ




Вы не можете начинать темы
Вы не можете отвечать на сообщения
Вы не можете редактировать свои сообщения
Вы не можете удалять свои сообщения
Вы не можете добавлять вложения

Перейти:  
Для Мосгорсуда, Роскомнадзора и рекламодателей: mosgorsud-torrent[собачка]yandex.ru
 Вход
ppkBB3cker v.2 © 2008-2014 @ PPK
[ Time : 0.554s | 15 Queries | GZIP : Off ]

Торрент трекер RUTOR.IN, Не можете зайти на rutor.org? Какой новый адрес рутор? Какое зеркало рутор? Не работает rutor.org и зеркала? Тогда наш торрент специально для вас. Rutor.in неофициальное зеркало rutor. В случае если у Вас заблокирован rutor или вдруг Вы не можете на него зайти, то Вы без труда сможете скачать бесплатно и без рекламы последние новинки кино, игр, сериалов и прочего у нас, на Rutor.in. Не нужно использовать прокси, чтобы зайти на рутор, достаточно воспользоваться нашим ресурсом. Все новые фильмы, игры, сериалы, книги и музыка за 2013 и 2014 годы через торрент бесплатно. Скачивайте фильмы в хорошем качестве, игры для пк, xbox, playstation без регистрации. У нас вы найдете новые Зарубежные сериалы и Русские сериалы 2013, 2014, 2015 годов. Оставайтесь с нами, качайте любимые фильмы, игры, сериалы, книги и музыку.