img image001 image001 image001 image001 image001 image001 image001 image001 image001 image001 image001 image001 image001 image001 image001

Planets Sun Sun Sun
Статистика раздачи
Автор: Nickolas3434 | Размер: 6.46 ГБ | Добавлен: 14 мар 2014
Раздают: 56    Качают: 18
Скачать торрент
Скачать торрент
Описание торрента

СообщениеДобавлено: 14 мар 2014 

Кубок Мира 2013-14. 8-й этап. Контиолахти (Финляндия)
Спринт 7,5 км. Женщины



Вид спорта: Биатлон
Комментарий: русский (Дмитрий Губерниев)
Описание: КМ-2014. Этап 8 (Контиолахти, Финляндия)
Спринт 7,5 км. Женщины
13 марта 2014 года, четверг. 20:45 мск

Автор записи: Striker



Качество: HDTV
Формат: TS
Видео: 1920x1080i, H.264, 25 fps, ~ 11000kbps
Аудио: MP2, 48 kHz, 2 ch, ~192.00 kbps

Format : MPEG-TS
File size : 6.46 GiB
Duration : 1h 19mn
Overall bit rate mode : Variable
Overall bit rate : 11.6 Mbps

Video
ID : 303 (0x12F)
Menu ID : 1 (0x1)
Format : AVC
Format/Info : Advanced Video Codec
Format profile : High@L4.0
Format settings, CABAC : Yes
Format settings, ReFrames : 3 frames
Codec ID : 27
Duration : 1h 19mn
Bit rate : 10.9 Mbps
Width : 1 920 pixels
Height : 1 080 pixels
Display aspect ratio : 16:9
Frame rate : 25.000 fps
Standard : Component
Color space : YUV
Chroma subsampling : 4:2:0
Bit depth : 8 bits
Scan type : Interlaced
Scan order : Top Field First
Bits/(Pixel*Frame) : 0.209
Stream size : 6.03 GiB (93%)
Color primaries : BT.709
Transfer characteristics : BT.709
Matrix coefficients : BT.709

Audio
ID : 403 (0x193)
Menu ID : 1 (0x1)
Format : MPEG Audio
Format version : Version 1
Format profile : Layer 2
Codec ID : 3
Duration : 1h 19mn
Bit rate mode : Constant
Bit rate : 192 Kbps
Channel count : 2 channels
Sampling rate : 48.0 KHz
Compression mode : Lossy
Stream size : 109 MiB (2%)
Language : Russian

01:19:36








   Похожие торренты   Торрент   Размер 
В этой теме нет новых непрочитанных сообщений. Биатлон. Кубок мира 2013/14. 8 этап. Спринт. Мужчины. Контиолахти (Финляндия) [Спорт 1 HD] [13.03] (2014) HDTV 1080i

29 | 18

6.75 ГБ

В этой теме нет новых непрочитанных сообщений. Биатлон. Кубок мира 2013/14. 8 этап. Спринт. Женщины. Контиолахти (Финляндия) [Спорт 1 HD] [13.03] (2014) DVB

59 | 18

1.78 ГБ

В этой теме нет новых непрочитанных сообщений. Биатлон. Кубок мира 2013/14. 8 этап. Спринт 7,5 км. Женщины. Контиолахти (Финляндия) [Спорт 1] [15.03] (2014) DVB

19 | 3

1.51 ГБ

В этой теме нет новых непрочитанных сообщений. Биатлон. Кубок мира 2013/14. 8 этап. Спринт. Женщины. Контиолахти (Финляндия) [Спорт 1 HD] [13.03] (2014) SATRip

342 | 75

1.02 ГБ

В этой теме нет новых непрочитанных сообщений. Биатлон. Кубок мира 2013/14. 8 этап. Спринт 7,5 км. Женщины. Контиолахти (Финляндия) [Спорт 1] [15.03] (2014) SATRip

98 | 13

903.61 МБ

В этой теме нет новых непрочитанных сообщений. Биатлон. Кубок мира 2013/14. 8 этап. Спринт 7,5 км. Женщины. Контиолахти (Финляндия) [Спорт 1 HD] [15.03] (2014) HDTVRip 720р | 50 fps

16 | 14

2.27 ГБ

В этой теме нет новых непрочитанных сообщений. Биатлон. Кубок мира 2013/14. 8 этап. Гонка преследования 10 км. Женщины. Контиолахти (Финляндия) [Спорт 1 HD] [16.03] (2014) IPTV 1080i

80 | 22

2.15 ГБ




Вы не можете начинать темы
Вы не можете отвечать на сообщения
Вы не можете редактировать свои сообщения
Вы не можете удалять свои сообщения
Вы не можете добавлять вложения

Перейти:  
Для Мосгорсуда, Роскомнадзора и рекламодателей: mosgorsud-torrent[собачка]yandex.ru
 Вход
ppkBB3cker v.2 © 2008-2014 @ PPK
[ Time : 0.041s | 15 Queries | GZIP : Off ]

Торрент трекер RUTOR.IN, Не можете зайти на rutor.org? Какой новый адрес рутор? Какое зеркало рутор? Не работает rutor.org и зеркала? Тогда наш торрент специально для вас. Rutor.in неофициальное зеркало rutor. В случае если у Вас заблокирован rutor или вдруг Вы не можете на него зайти, то Вы без труда сможете скачать бесплатно и без рекламы последние новинки кино, игр, сериалов и прочего у нас, на Rutor.in. Не нужно использовать прокси, чтобы зайти на рутор, достаточно воспользоваться нашим ресурсом. Все новые фильмы, игры, сериалы, книги и музыка за 2013 и 2014 годы через торрент бесплатно. Скачивайте фильмы в хорошем качестве, игры для пк, xbox, playstation без регистрации. У нас вы найдете новые Зарубежные сериалы и Русские сериалы 2013, 2014, 2015 годов. Оставайтесь с нами, качайте любимые фильмы, игры, сериалы, книги и музыку.