img image001 image001 image001 image001 image001 image001 image001 image001 image001 image001 image001 image001 image001 image001 image001

Planets Sun Sun Sun
Статистика раздачи
Автор: Nickolas3434 | Размер: 13.16 ГБ | Добавлен: 16 мар 2014
Раздают: 16    Качают: 5
Скачать торрент
Скачать торрент
Описание торрента

СообщениеДобавлено: 16 мар 2014 

#77
Вид спорта: Футбол
Год выпуска: 15.03.2014
Язык комментариев: Русский (Геннадий Орлов)
Участники: ЦСКА - Зенит

Описание: Химки (Россия). Стадион Арена Химки.
21-й тур 15 марта 2014 года, суббота. 16:00 мск
Главный судья: Михаил Вилков (Нижний Новгород, Россия)
Матч 1 (18.10.2013) - 0:2.

Автор рипа.записи: Mr/ Drax

Качество: HDTV
Продолжительность: 01:52:57

Формат: TS
Видео кодек: H.264
Аудио кодек: MP2
Свойства видео: 1920x1080, 25,000 кадров/сек, 15.7 Mbps
Свойства аудио: 48,0 КГц, 2ch stereo, 192 Кбит/сек

1-0
Complete name : H:FootballРФПЛ 2013-14ЦСКА - Зенит. 15.03.2014. 1080i.ts
Format : MPEG-TS
File size : 13.2 GiB
Duration : 1h 52mn
Overall bit rate mode : Variable
Overall bit rate : 16.7 Mbps

Video
ID : 301 (0x12D)
Menu ID : 1 (0x1)
Format : AVC
Format/Info : Advanced Video Codec
Format profile : High@L4.0
Format settings, CABAC : Yes
Format settings, ReFrames : 3 frames
Codec ID : 27
Duration : 1h 52mn
Bit rate : 15.7 Mbps
Width : 1 920 pixels
Height : 1 080 pixels
Display aspect ratio : 16:9
Frame rate : 25.000 fps
Standard : Component
Color space : YUV
Chroma subsampling : 4:2:0
Bit depth : 8 bits
Scan type : Interlaced
Scan order : Top Field First
Bits/(Pixel*Frame) : 0.302
Stream size : 12.4 GiB (94%)
Color primaries : BT.709
Transfer characteristics : BT.709
Matrix coefficients : BT.709

Audio
ID : 401 (0x191)
Menu ID : 1 (0x1)
Format : MPEG Audio
Format version : Version 1
Format profile : Layer 2
Codec ID : 3
Duration : 1h 52mn
Bit rate mode : Constant
Bit rate : 192 Kbps
Channel count : 2 channels
Sampling rate : 48.0 KHz
Compression mode : Lossy
Stream size : 155 MiB (1%)
Language : English



   Похожие торренты   Торрент   Размер 
В этой теме нет новых непрочитанных сообщений. Футбол. Чемпионат России 2013/14. 21-й тур. ЦСКА (Москва) - Зенит (Санкт-Петербург) [Первый HD] [15.03] (2014) HDTV 1080i от MediaClub

105 | 26

8.89 ГБ

В этой теме нет новых непрочитанных сообщений. Футбол. Чемпионат России 2013-14. 13-й тур. Зенит (Санкт-Петербург) - ЦСКА (Москва) (2013) HDTV 1080i

0 | 2

14.46 ГБ

В этой теме нет новых непрочитанных сообщений. Футбол. Чемпионат России 2012-2013. 3-й тур. ЦСКА (Москва) - Зенит (Санкт-Петербург) (2012) HDTV 1080i

0 | 2

15.21 ГБ

В этой теме нет новых непрочитанных сообщений. Футбол. Чемпионат России 2015-16 (8-й тур) ЦСКА–Зенит [12.09] (2015) HDTV 1080i от GeneralFilm

95 | 104

12.02 ГБ

В этой теме нет новых непрочитанных сообщений. Футбол. Суперкубок России 2013. ЦСКА (Москва) - Зенит (Санкт-Петербург) [Первый HD] (2013) HDTV 1080i

2 | 2

9.66 ГБ

В этой теме нет новых непрочитанных сообщений. Футбол. Чемпионат России 2013-2014. 4-й тур. Рубин (Казань) - ЦСКА (Москва) (2013) HDTV 1080i

0 | 1

16.41 ГБ

В этой теме нет новых непрочитанных сообщений. Футбол. Чемпионат России 2013-2014. 3-й тур. Зенит (Санкт-Петербург) - Кубань (Краснодар) (2013) HDTV 1080i

2 | 2

13.73 ГБ




Вы не можете начинать темы
Вы не можете отвечать на сообщения
Вы не можете редактировать свои сообщения
Вы не можете удалять свои сообщения
Вы не можете добавлять вложения

Перейти:  
Для Мосгорсуда, Роскомнадзора и рекламодателей: mosgorsud-torrent[собачка]yandex.ru
 Вход
ppkBB3cker v.2 © 2008-2014 @ PPK
[ Time : 0.039s | 16 Queries | GZIP : Off ]

Торрент трекер RUTOR.IN, Не можете зайти на rutor.org? Какой новый адрес рутор? Какое зеркало рутор? Не работает rutor.org и зеркала? Тогда наш торрент специально для вас. Rutor.in неофициальное зеркало rutor. В случае если у Вас заблокирован rutor или вдруг Вы не можете на него зайти, то Вы без труда сможете скачать бесплатно и без рекламы последние новинки кино, игр, сериалов и прочего у нас, на Rutor.in. Не нужно использовать прокси, чтобы зайти на рутор, достаточно воспользоваться нашим ресурсом. Все новые фильмы, игры, сериалы, книги и музыка за 2013 и 2014 годы через торрент бесплатно. Скачивайте фильмы в хорошем качестве, игры для пк, xbox, playstation без регистрации. У нас вы найдете новые Зарубежные сериалы и Русские сериалы 2013, 2014, 2015 годов. Оставайтесь с нами, качайте любимые фильмы, игры, сериалы, книги и музыку.
cron