img image001 image001 image001 image001 image001 image001 image001 image001 image001 image001 image001 image001 image001 image001 image001

Planets Sun Sun Sun
Статистика раздачи
Автор: Nickolas3434 | Размер: 4.18 ГБ | Добавлен: 17 мар 2014
Раздают: 45    Качают: 21
Скачать торрент
Скачать торрент
Описание торрента

СообщениеДобавлено: 17 мар 2014 

Формула 1 2014 – Этап 01 – Австралия
Квалификация (Intro+Live) – SkySportsHD/СПОРТ1 – 720p







Год выпуска: 2014
Вид спорта: Formula 1 (F1)
Участники: Пилоты Ф1 2014 и специалисты команд
Продолжительность: 55 мин + 1 час 45 мин
Комментарий: Профессиональный (многоголосый)
Язык комментариев:
русский: А. Попов, Н. Фабричнова (по умолчанию, только Live сегмент)
английский: М. Брандл, Д. Крофт, Д. Хилл, с. Лезинби
Содержание:
Австралия – старт сезона, квалификация.
Intro - интервью, сюжеты, аналитика и прогнозы на квалификацию.
Live - сама квалификация в полном объеме, включая постквалификационные интервью и аналитику.

(в сегменте Intro присутствует реклама канала)
Исходник от: smcgill1969

Русский комментарий взят из этого релиза: спасибо baggo17879.
Качество: HDTVRip
Формат: MKV
Видео кодек: AVC
Аудио кодек: AC3

"Тех. данные:"
Format : AVC
Format/Info : Advanced Video Codec
Format profile : High@L3.1
Format settings, CABAC : Yes
Format settings, ReFrames : 4 frames
Codec ID : V_MPEG4/ISO/AVC
Duration : 1h 44mn
Bit rate : 3 589 Kbps
Width : 1 280 pixels
Height : 720 pixels
Display aspect ratio : 16:9
Frame rate mode : Variable
Frame rate : 25.000 fps
Color space : YUV
Chroma subsampling : 4:2:0
Bit depth : 8 bits
Scan type : Progressive
Bits/(Pixel*Frame) : 0.156
Audio #1
ID : 2
Format : MPEG Audio
Format version : Version 1
Format profile : Layer 3
Mode : Joint stereo
Codec ID : A_MPEG/L3
Codec ID/Hint : MP3
Duration : 1h 44mn
Bit rate mode : Constant
Bit rate : 128 Kbps
Channel(s) : 2 channels
Sampling rate : 48.0 KHz
Compression mode : Lossy
Stream size : 96.1 MiB (3%)
Title : SPORT1
Language : Russian

Audio #2
ID : 3
Format : AC-3
Format/Info : Audio Coding 3
Mode extension : CM (complete main)
Codec ID : A_AC3
Duration : 1h 44mn
Bit rate mode : Constant
Bit rate : 320 Kbps
Channel(s) : 6 channels
Channel positions : Front: L C R, Side: L R, LFE
Sampling rate : 48.0 KHz
Bit depth : 16 bits
Compression mode : Lossy
Stream size : 240 MiB (8%)
Title : Sky Sports
Language : English


P.S. Благодарность автору раздачи за труд всегда приветствуется.


"Скриншоты:"





   Похожие торренты   Торрент   Размер 
В этой теме нет новых непрочитанных сообщений. Формула 1: Гран-при Австрии. Шпильберг. 8 этап: Гонка. Intro+Live [SkySportsHD] (2014) HDTVRip 720p

8 | 6

8.21 ГБ

В этой теме нет новых непрочитанных сообщений. Формула 1. Гран-при Австралии 2014. 1 этап. 1,3-ая практика, Квалификация, Гонка [Спорт 1 HD] [14.03] (2014) HDTV 1080i

45 | 325

14.44 ГБ

В этой теме нет новых непрочитанных сообщений. Формула 1: 03/20. Гран-при Китая. Квалификация (Intro+Live) [SkySportsF1/Россия2] [11.04] (2015) HDTVRip 720p | 50 fps

4 | 16

5.95 ГБ

В этой теме нет новых непрочитанных сообщений. Формула 1: 09/20. Гран-при Великобритания . Квалификация (Intro+Live) [SkySportsF1/Россия2] [04.07] (2015) HDTVRip 720p | 50 fps

39 | 9

5.42 ГБ

В этой теме нет новых непрочитанных сообщений. Формула 1: 15/20. Гран-при России. Квалификация, Гонка (Intro+Live) [SkySportsF1/Россия2] [10-11.10] (2015) HDTVRip 720p | 50 fps

62 | 189

13.16 ГБ

В этой теме нет новых непрочитанных сообщений. Формула 1. Сезон 2013. Этап 08. Гран При Великобритании. Квалификация [Intro+Live] [BBC HD, Россия 2] (2013) HDTVRip 720p

0 | 2

3.72 ГБ

В этой теме нет новых непрочитанных сообщений. Формула 1. Гран-при Австралии 2014. 1 этап. Квалификация (2014) HDTVRip 720p

706 | 26

1.83 ГБ




Вы не можете начинать темы
Вы не можете отвечать на сообщения
Вы не можете редактировать свои сообщения
Вы не можете удалять свои сообщения
Вы не можете добавлять вложения

Перейти:  
Для Мосгорсуда, Роскомнадзора и рекламодателей: mosgorsud-torrent[собачка]yandex.ru
 Вход
ppkBB3cker v.2 © 2008-2014 @ PPK
[ Time : 0.059s | 15 Queries | GZIP : Off ]

Торрент трекер RUTOR.IN, Не можете зайти на rutor.org? Какой новый адрес рутор? Какое зеркало рутор? Не работает rutor.org и зеркала? Тогда наш торрент специально для вас. Rutor.in неофициальное зеркало rutor. В случае если у Вас заблокирован rutor или вдруг Вы не можете на него зайти, то Вы без труда сможете скачать бесплатно и без рекламы последние новинки кино, игр, сериалов и прочего у нас, на Rutor.in. Не нужно использовать прокси, чтобы зайти на рутор, достаточно воспользоваться нашим ресурсом. Все новые фильмы, игры, сериалы, книги и музыка за 2013 и 2014 годы через торрент бесплатно. Скачивайте фильмы в хорошем качестве, игры для пк, xbox, playstation без регистрации. У нас вы найдете новые Зарубежные сериалы и Русские сериалы 2013, 2014, 2015 годов. Оставайтесь с нами, качайте любимые фильмы, игры, сериалы, книги и музыку.