img image001 image001 image001 image001 image001 image001 image001 image001 image001 image001 image001 image001 image001 image001 image001

Planets Sun Sun Sun
Статистика раздачи
Автор: Nickolas3434 | Размер: 759.98 МБ | Добавлен: 17 мар 2014
Раздают: 27    Качают: 3
Скачать торрент
Скачать торрент
Описание торрента

СообщениеДобавлено: 17 мар 2014 

Кубок Мира 2013-14. 8-й этап. Контиолахти (Финляндия). Мужчины. 2-й Спринт 10 км

Вид спорта: Биатлон
Комментарий: Профес4сиональный
Язык комментариев: Русский (Дмитрий Терехов)
Описание: Кубок Мира 2013-14. 8-й этап. Контиолахти (Финляндия). Мужчины. 2-й Спринт 10 км.

ВНИМАНИЕ! Евроспорт показал гонку не до конца!
Автор рипа: sanchez2011
Качество: SATRip
Формат: AVI
Видео кодек: XviD
Аудио кодек: MP3
Видео: MPEG-4 Visual (H263) 704x400 (16:9) 25.00fps 1700kbps
Аудио: MPEG Audio Layer 3 48000Hz mono 128kbps

Результаты

Продолжительность: 01:00:41


General
Complete name : E:TorrentБиатлон. Сезон 2013-20148-й этап. Контиолахти (Финляндия)Кубок Мира 2013-14. 8-й этап. Контиолахти (Финляндия). Мужчины. 2-й Спринт 10 км. Евроспорт.avi
Format : AVI
Format/Info : Audio Video Interleave
File size : 760 MiB
Duration : 1h 0mn
Overall bit rate : 1 751 Kbps
Writing application : VirtualDubMod 1.5.10.2 (build 2540/release)
Writing library : VirtualDubMod build 2540/release

Video
ID : 0
Format : MPEG-4 Visual
Format profile : Advanced Simple@L5
Format settings, BVOP : 2
Format settings, QPel : No
Format settings, GMC : No warppoints
Format settings, Matrix : Default (H.263)
Codec ID : XVID
Codec ID/Hint : XviD
Duration : 1h 0mn
Bit rate : 1 613 Kbps
Width : 704 pixels
Height : 400 pixels
Display aspect ratio : 16:9
Frame rate : 25.000 fps
Color space : YUV
Chroma subsampling : 4:2:0
Bit depth : 8 bits
Scan type : Progressive
Compression mode : Lossy
Bits/(Pixel*Frame) : 0.229
Stream size : 700 MiB (92%)
Writing library : XviD 64

Audio
ID : 1
Format : MPEG Audio
Format version : Version 1
Format profile : Layer 3
Codec ID : 55
Codec ID/Hint : MP3
Duration : 1h 0mn
Bit rate mode : Constant
Bit rate : 128 Kbps
Channel(s) : 1 channel
Sampling rate : 48.0 KHz
Compression mode : Lossy
Stream size : 55.6 MiB (7%)
Alignment : Aligned on interleaves
Interleave, duration : 40 ms (1.00 video frame)
Interleave, preload duration : 504 ms
Writing library : LAME3.100



   Похожие торренты   Торрент   Размер 
В этой теме нет новых непрочитанных сообщений. Биатлон. Кубок мира 2013/14. 8 этап. Спринт 7,5 км. Женщины. Контиолахти (Финляндия) [Евроспорт] [15.03] (2014) SATRip

7 | 6

907.88 МБ

В этой теме нет новых непрочитанных сообщений. Биатлон. Кубок мира 2013/14. 8 этап. Спринт. Мужчины. Контиолахти (Финляндия) [Россия 2] [13.03] (2014) SATRip от MediaClub

188 | 6

1009.71 МБ

В этой теме нет новых непрочитанных сообщений. Биатлон. Кубок мира 2013/14. 8 этап. Спринт. Мужчины. Контиолахти (Финляндия) [Россия 2] [15.03] (2014) SATRip от MediaClub

182 | 7

841.44 МБ

В этой теме нет новых непрочитанных сообщений. Биатлон. Кубок мира 2013/14. 8 этап. Гонка преследования 12.5 км. Мужчины. Контиолахти (Финляндия) [Евроспорт] [16.03] (2014) HDTVRip

22 | 7

496.56 МБ

В этой теме нет новых непрочитанных сообщений. Биатлон. Кубок мира 2013/14. 8 этап. Спринт 10 км. Мужчины. Контиолахти (Финляндия) [Спорт 1 HD] [15.03] (2014) DVB

44 | 6

1.52 ГБ

В этой теме нет новых непрочитанных сообщений. Биатлон. Кубок мира 2013/14. 8 этап. Спринт. Мужчины. Контиолахти (Финляндия) [Спорт 1 HD] [13.03] (2014) HDTVRip

126 | 30

983.5 МБ

В этой теме нет новых непрочитанных сообщений. Биатлон. Кубок мира 2013/14. 8 этап. Спринт 10 км. Мужчины. Контиолахти (Финляндия) [Спорт 1 HD] [15.03] (2014) HDTVRip

67 | 10

856.7 МБ




Вы не можете начинать темы
Вы не можете отвечать на сообщения
Вы не можете редактировать свои сообщения
Вы не можете удалять свои сообщения
Вы не можете добавлять вложения

Перейти:  
Для Мосгорсуда, Роскомнадзора и рекламодателей: mosgorsud-torrent[собачка]yandex.ru
 Вход
ppkBB3cker v.2 © 2008-2014 @ PPK
[ Time : 1.012s | 14 Queries | GZIP : On ]

Торрент трекер RUTOR.IN, Не можете зайти на rutor.org? Какой новый адрес рутор? Какое зеркало рутор? Не работает rutor.org и зеркала? Тогда наш торрент специально для вас. Rutor.in неофициальное зеркало rutor. В случае если у Вас заблокирован rutor или вдруг Вы не можете на него зайти, то Вы без труда сможете скачать бесплатно и без рекламы последние новинки кино, игр, сериалов и прочего у нас, на Rutor.in. Не нужно использовать прокси, чтобы зайти на рутор, достаточно воспользоваться нашим ресурсом. Все новые фильмы, игры, сериалы, книги и музыка за 2013 и 2014 годы через торрент бесплатно. Скачивайте фильмы в хорошем качестве, игры для пк, xbox, playstation без регистрации. У нас вы найдете новые Зарубежные сериалы и Русские сериалы 2013, 2014, 2015 годов. Оставайтесь с нами, качайте любимые фильмы, игры, сериалы, книги и музыку.