img image001 image001 image001 image001 image001 image001 image001 image001 image001 image001 image001 image001 image001 image001 image001

Planets Sun Sun Sun
Статистика раздачи
Автор: Nickolas3434 | Размер: 903.61 МБ | Добавлен: 17 мар 2014
Раздают: 98    Качают: 13
Скачать торрент
Скачать торрент
Описание торрента

СообщениеДобавлено: 17 мар 2014 

Кубок Мира 2013-14. 8-й этап. Контиолахти (Финляндия). Женщины. 2-й Спринт 7,5 км

Вид спорта: Биатлон
Комментарий: Профессиональный
Язык комментариев: Русский (Дмитрий Губерниев)
Описание: Кубок Мира 2013-14. 8-й этап. Контиолахти (Финляндия). Женщины. 2-й Спринт 7,5 км.
Автор рипа: sanchez2011
Качество: SATRip
Формат: AVI
Видео кодек: XviD
Аудио кодек: MP3
Видео: MPEG-4 Visual (H263) 720x400 (16:9) 25.00fps 1700kbps
Аудио: MPEG Audio Layer 3 48000Hz stereo 128kbps

Результаты

Продолжительность: 01:08:57


General
Complete name : E:TorrentБиатлон. Сезон 2013-20148-й этап. Контиолахти (Финляндия)Кубок Мира 2013-14. 8-й этап. Контиолахти (Финляндия). Женщины. 2-й Спринт 7,5 км. Спорт 1.avi
Format : AVI
Format/Info : Audio Video Interleave
File size : 904 MiB
Duration : 1h 8mn
Overall bit rate : 1 832 Kbps
Writing application : VirtualDubMod 1.5.10.2 (build 2540/release)
Writing library : VirtualDubMod build 2540/release

Video
ID : 0
Format : MPEG-4 Visual
Format profile : Advanced Simple@L5
Format settings, BVOP : 2
Format settings, QPel : No
Format settings, GMC : No warppoints
Format settings, Matrix : Default (H.263)
Codec ID : XVID
Codec ID/Hint : XviD
Duration : 1h 8mn
Bit rate : 1 694 Kbps
Width : 720 pixels
Height : 400 pixels
Display aspect ratio : 16:9
Frame rate : 25.000 fps
Color space : YUV
Chroma subsampling : 4:2:0
Bit depth : 8 bits
Scan type : Progressive
Compression mode : Lossy
Bits/(Pixel*Frame) : 0.235
Stream size : 836 MiB (92%)
Writing library : XviD 64

Audio
ID : 1
Format : MPEG Audio
Format version : Version 1
Format profile : Layer 3
Mode : Joint stereo
Mode extension : MS Stereo
Codec ID : 55
Codec ID/Hint : MP3
Duration : 1h 8mn
Bit rate mode : Constant
Bit rate : 128 Kbps
Channel(s) : 2 channels
Sampling rate : 48.0 KHz
Compression mode : Lossy
Stream size : 63.1 MiB (7%)
Alignment : Aligned on interleaves
Interleave, duration : 40 ms (1.00 video frame)
Interleave, preload duration : 504 ms
Writing library : LAME3.100



   Похожие торренты   Торрент   Размер 
В этой теме нет новых непрочитанных сообщений. Биатлон. Кубок мира 2013/14. 8 этап. Спринт. Женщины. Контиолахти (Финляндия) [Спорт 1 HD] [13.03] (2014) SATRip

342 | 75

1.02 ГБ

В этой теме нет новых непрочитанных сообщений. Биатлон. Кубок мира 2013/14. 8 этап. Спринт 7,5 км. Женщины. Контиолахти (Финляндия) [Спорт 1] [15.03] (2014) DVB

19 | 3

1.51 ГБ

В этой теме нет новых непрочитанных сообщений. Биатлон. Кубок мира 2013/14. 8 этап. Спринт. Женщины. Контиолахти (Финляндия) [Спорт 1 HD] [13.03] (2014) DVB

59 | 18

1.78 ГБ

В этой теме нет новых непрочитанных сообщений. Биатлон. Кубок мира 2013/14. 8 этап. Спринт 7,5 км. Женщины. Контиолахти (Финляндия) [Спорт 1 HD] [15.03] (2014) HDTVRip 720р | 50 fps

16 | 14

2.27 ГБ

В этой теме нет новых непрочитанных сообщений. Биатлон. Кубок мира 2013/14. 8 этап. Спринт. Женщины. Контиолахти (Финляндия) [Спорт 1 HD] [13.03] (2014) HDTV 1080i

56 | 18

6.46 ГБ

В этой теме нет новых непрочитанных сообщений. Биатлон. Кубок мира 2013/14. 8 этап. Спринт 7,5 км. Женщины. Контиолахти (Финляндия) [Евроспорт] [15.03] (2014) SATRip

7 | 6

907.88 МБ

В этой теме нет новых непрочитанных сообщений. Биатлон. Кубок мира 2013/14. 8 этап. Спринт. Женщины. Контиолахти (Финляндия) [Россия 2] [15.03] (2014) SATRip от MediaClub

199 | 7

837.71 МБ




Вы не можете начинать темы
Вы не можете отвечать на сообщения
Вы не можете редактировать свои сообщения
Вы не можете удалять свои сообщения
Вы не можете добавлять вложения

Перейти:  
Для Мосгорсуда, Роскомнадзора и рекламодателей: mosgorsud-torrent[собачка]yandex.ru
 Вход
ppkBB3cker v.2 © 2008-2014 @ PPK
[ Time : 0.084s | 14 Queries | GZIP : Off ]

Торрент трекер RUTOR.IN, Не можете зайти на rutor.org? Какой новый адрес рутор? Какое зеркало рутор? Не работает rutor.org и зеркала? Тогда наш торрент специально для вас. Rutor.in неофициальное зеркало rutor. В случае если у Вас заблокирован rutor или вдруг Вы не можете на него зайти, то Вы без труда сможете скачать бесплатно и без рекламы последние новинки кино, игр, сериалов и прочего у нас, на Rutor.in. Не нужно использовать прокси, чтобы зайти на рутор, достаточно воспользоваться нашим ресурсом. Все новые фильмы, игры, сериалы, книги и музыка за 2013 и 2014 годы через торрент бесплатно. Скачивайте фильмы в хорошем качестве, игры для пк, xbox, playstation без регистрации. У нас вы найдете новые Зарубежные сериалы и Русские сериалы 2013, 2014, 2015 годов. Оставайтесь с нами, качайте любимые фильмы, игры, сериалы, книги и музыку.