img image001 image001 image001 image001 image001 image001 image001 image001 image001 image001 image001 image001 image001 image001 image001

Planets Sun Sun Sun
Статистика раздачи
Автор: Nickolas3434 | Размер: 300.01 МБ | Добавлен: 16 мар 2014
Раздают: 29    Качают: 9
Скачать торрент
Скачать торрент
Описание торрента

СообщениеДобавлено: 16 мар 2014 

Биатлон с Дмитрием Губерниевым. Сезон 2013/2014. Выпуск 10

Год выпуска: 2014
Дата эфира: 16 марта
Ведущие: Дмитрий Губерниев
Продолжительность: 00:25:45
Комментарий: Профессиональный
Язык комментариев: Русский
Описание: Для биатлонистов зима - это время мобилизации сил и полной концентрации. Для зрителей - начало интереснейших соревнований и сильных переживаний за сборную. В программе все, о чем хотят знать болельщики: новости и комментарии, интервью с лидерами соревнований и рассказы о российской команде.
В этом выпуске:
- В марте Александр Логинов всегда в порядке, только жаль, что кубок мира совсем скоро уже закончится;
- Задумчивое финское телевидение: лишь на восьмом километре гонки режиссер трансляции впервые вспомнил, что надо хотя бы раз показать лидера;
- Александр Бубнов не единственный, кто ставит оценки, - в биатлоне у него появились конкуренты;
- Мартен Фуркад воспринимает контактные гонки слишком буквально и чаще всего контактирует с палками соперников;
- Кого из биатлонистов мы можем не увидеть в следующем сезоне? С сожалением поразмышляем, кто там задумался о завершении карьеры;
- Российский этап кубка мира, ну, или почти российский. До границы всего лишь 100 км, так что в Контиолахти наших болельщиков раз в 10 больше, чем финских;
- Спринт идет чуть более часа. Как меняется температура воздуха за это время и можно ли что-то выиграть за счет этих перемен?
Автор рипа: sanchez2011
Качество: SATRip
Формат: AVI
Видео кодек: XviD
Аудио кодек: MP3
Видео: MPEG-4 Visual (H263) 704x400 (16:9) 25.00fps 1500kbps
Аудио: MPEG Audio Layer 3 48000Hz stereo 128kbps


General
Complete name : E:TorrentБиатлон. Сезон 2013-2014Биатлон с Губерниевым (AVI)Биатлон с Дмитрием Губерниевым. Выпуск 10 (Эфир от 2014.03.16).avi
Format : AVI
Format/Info : Audio Video Interleave
File size : 300 MiB
Duration : 25mn 45s
Overall bit rate : 1 628 Kbps
Writing application : VirtualDubMod 1.5.10.2 (build 2540/release)
Writing library : VirtualDubMod build 2540/release

Video
ID : 0
Format : MPEG-4 Visual
Format profile : Advanced Simple@L5
Format settings, BVOP : 2
Format settings, QPel : No
Format settings, GMC : No warppoints
Format settings, Matrix : Default (H.263)
Codec ID : XVID
Codec ID/Hint : XviD
Duration : 25mn 45s
Bit rate : 1 491 Kbps
Width : 704 pixels
Height : 400 pixels
Display aspect ratio : 16:9
Frame rate : 25.000 fps
Color space : YUV
Chroma subsampling : 4:2:0
Bit depth : 8 bits
Scan type : Progressive
Compression mode : Lossy
Bits/(Pixel*Frame) : 0.212
Stream size : 275 MiB (92%)
Writing library : XviD 64

Audio
ID : 1
Format : MPEG Audio
Format version : Version 1
Format profile : Layer 3
Mode : Joint stereo
Mode extension : MS Stereo
Codec ID : 55
Codec ID/Hint : MP3
Duration : 25mn 45s
Bit rate mode : Constant
Bit rate : 128 Kbps
Channel(s) : 2 channels
Sampling rate : 48.0 KHz
Compression mode : Lossy
Stream size : 23.6 MiB (8%)
Alignment : Aligned on interleaves
Interleave, duration : 40 ms (1.00 video frame)
Interleave, preload duration : 504 ms
Writing library : LAME3.100



   Похожие торренты   Торрент   Размер 
В этой теме нет новых непрочитанных сообщений. Биатлон с Дмитрием Губерниевым [Эфир от 14.12] (2012) SATRip

0 | 1

809.55 МБ

В этой теме нет новых непрочитанных сообщений. Биатлон с Дмитрием Губерниевым [Эфир от 30.11] (2012) SATRip

0 | 1

307.46 МБ

В этой теме нет новых непрочитанных сообщений. Биатлон с Дмитрием Губерниевым [Эфир от 04.01] (2012) SATRip

0 | 1

415.01 МБ

В этой теме нет новых непрочитанных сообщений. Биатлон с Дмитрием Губерниевым [Эфир от 07.12] (2012) SATRip

0 | 1

302.76 МБ

В этой теме нет новых непрочитанных сообщений. Биатлон с Дмитрием Губерниевым [Эфир от 09.03] (2012) SATRip

0 | 1

457.6 МБ

В этой теме нет новых непрочитанных сообщений. Биатлон с Дмитрием Губерниевым [Эфир от 18.01] (2012) SATRip

0 | 1

313.78 МБ

В этой теме нет новых непрочитанных сообщений. Биатлон с Дмитрием Губерниевым [Эфир от 13.01] (2012) SATRip

0 | 1

342.01 МБ




Вы не можете начинать темы
Вы не можете отвечать на сообщения
Вы не можете редактировать свои сообщения
Вы не можете удалять свои сообщения
Вы не можете добавлять вложения

Перейти:  
Для Мосгорсуда, Роскомнадзора и рекламодателей: mosgorsud-torrent[собачка]yandex.ru
 Вход
ppkBB3cker v.2 © 2008-2014 @ PPK
[ Time : 4.433s | 16 Queries | GZIP : Off ]

cron