img image001 image001 image001 image001 image001 image001 image001 image001 image001 image001 image001 image001 image001 image001 image001

Planets Sun Sun Sun
Статистика раздачи
Автор: Nickolas3434 | Размер: 2.27 ГБ | Добавлен: 17 мар 2014
Раздают: 16    Качают: 14
Скачать торрент
Скачать торрент
Описание торрента

СообщениеДобавлено: 17 мар 2014 

Кубок Мира 2013-14. 8-й этап. Контиолахти (Финляндия)
2-й Спринт 7,5 км. Женщины



Вид спорта: Биатлон
Комментарий: русский (Дмитрий Губерниев)
Описание: КМ-2014. Этап 8 (Контиолахти, Финляндия)
Спринт 7,5 км. Женщины
15 марта 2014 года, суббота. 17:45 мск

Автор записи/рипа: Striker



Качество: HDTVRip
Формат: MKV
Видео кодек: H.264
Аудио кодек: AC3
Видео: 1280x720 (16:9), 50 fps, ~4500 Kbps
Аудио: 48 kHz, 2 channels, 192 Kbps

Format : Matroska
Format version : Version 2
File size : 2.27 GiB
Duration : 1h 9mn
Overall bit rate mode : Variable
Overall bit rate : 4 695 Kbps
Encoded date : UTC 2014-03-15 21:05:02
Writing application : TMPGEnc Video Mastering Works 5 Version. 5.0.6.38
Writing library : TMPGEnc Video Mastering Works 5 Version. 5.0.6.38

Video
ID : 2
Format : AVC
Format/Info : Advanced Video Codec
Format profile : High@L3.2
Format settings, CABAC : Yes
Format settings, ReFrames : 3 frames
Codec ID : V_MPEG4/ISO/AVC
Duration : 1h 9mn
Bit rate mode : Variable
Bit rate : 4 500 Kbps
Maximum bit rate : 8 000 Kbps
Width : 1 280 pixels
Height : 720 pixels
Display aspect ratio : 16:9
Frame rate mode : Constant
Frame rate : 50.000 fps
Standard : NTSC
Color space : YUV
Chroma subsampling : 4:2:0
Bit depth : 8 bits
Scan type : Progressive
Bits/(Pixel*Frame) : 0.098
Stream size : 2.13 GiB (94%)
Writing library : x264 core 114
Encoding settings : cabac=1 / ref=3 / deblock=1:0:0 / analyse=0x3:0x113 / me=hex / subme=4 / psy=1 / psy_rd=0.00:0.00 / mixed_ref=0 / me_range=16 / chroma_me=1 / trellis=1 / 8x8dct=1 / cqm=2 / deadzone=21,11 / fast_pskip=1 / chroma_qp_offset=0 / threads=12 / sliced_threads=0 / slices=1 / nr=0 / decimate=1 / interlaced=0 / constrained_intra=0 / bframes=3 / b_pyramid=0 / b_adapt=1 / b_bias=0 / direct=1 / weightb=1 / open_gop=0 / weightp=1 / keyint=250 / keyint_min=25 / scenecut=40 / intra_refresh=0 / rc_lookahead=20 / rc=abr / mbtree=1 / bitrate=4500 / ratetol=1.0 / qcomp=0.60 / qpmin=1 / qpmax=69 / qpstep=4 / vbv_maxrate=8000 / vbv_bufsize=7995 / nal_hrd=vbr / ip_ratio=1.40 / aq=1:1.00
Default : Yes
Forced : No
Color primaries : BT.709
Transfer characteristics : BT.709
Matrix coefficients : BT.709

Audio
ID : 1
Format : AC-3
Format/Info : Audio Coding 3
Mode extension : CM (complete main)
Format settings, Endianness : Big
Codec ID : A_AC3
Duration : 1h 9mn
Bit rate mode : Constant
Bit rate : 192 Kbps
Channel count : 2 channels
Channel positions : Front: L R
Sampling rate : 48.0 KHz
Bit depth : 16 bits
Compression mode : Lossy
Stream size : 95.0 MiB (4%)
Default : Yes
Forced : No

01:09:10








   Похожие торренты   Торрент   Размер 
В этой теме нет новых непрочитанных сообщений. Биатлон. Кубок мира 2013/14. 8 этап. Спринт 10 км. Мужчины. Контиолахти (Финляндия) [Спорт 1 HD] [15.03] (2014) HDTVRip 720р | 50 fps

11 | 4

2.32 ГБ

В этой теме нет новых непрочитанных сообщений. Биатлон. Кубок мира 2013/14. 8 этап. Спринт. Мужчины. Контиолахти (Финляндия) [Спорт 1 HD] [13.03] (2014) HDTVRip 720р | 50 fps

39 | 22

2.66 ГБ

В этой теме нет новых непрочитанных сообщений. Биатлон. Кубок мира 2013/14. 8 этап. Спринт 7,5 км. Женщины. Контиолахти (Финляндия) [Спорт 1] [15.03] (2014) DVB

19 | 3

1.51 ГБ

В этой теме нет новых непрочитанных сообщений. Биатлон. Кубок мира 2013/14. 8 этап. Спринт. Женщины. Контиолахти (Финляндия) [Спорт 1 HD] [13.03] (2014) DVB

59 | 18

1.78 ГБ

В этой теме нет новых непрочитанных сообщений. Биатлон. Кубок мира 2013/14. 8 этап. Спринт. Женщины. Контиолахти (Финляндия) [Спорт 1 HD] [13.03] (2014) SATRip

342 | 75

1.02 ГБ

В этой теме нет новых непрочитанных сообщений. Биатлон. Кубок мира 2013/14. 8 этап. Спринт 7,5 км. Женщины. Контиолахти (Финляндия) [Спорт 1] [15.03] (2014) SATRip

98 | 13

903.61 МБ

В этой теме нет новых непрочитанных сообщений. Биатлон. Кубок мира 2013/14. 8 этап. Спринт. Женщины. Контиолахти (Финляндия) [Спорт 1 HD] [13.03] (2014) HDTV 1080i

56 | 18

6.46 ГБ




Вы не можете начинать темы
Вы не можете отвечать на сообщения
Вы не можете редактировать свои сообщения
Вы не можете удалять свои сообщения
Вы не можете добавлять вложения

Перейти:  
Для Мосгорсуда, Роскомнадзора и рекламодателей: mosgorsud-torrent[собачка]yandex.ru
 Вход
ppkBB3cker v.2 © 2008-2014 @ PPK
[ Time : 0.029s | 16 Queries | GZIP : Off ]

Торрент трекер RUTOR.IN, Не можете зайти на rutor.org? Какой новый адрес рутор? Какое зеркало рутор? Не работает rutor.org и зеркала? Тогда наш торрент специально для вас. Rutor.in неофициальное зеркало rutor. В случае если у Вас заблокирован rutor или вдруг Вы не можете на него зайти, то Вы без труда сможете скачать бесплатно и без рекламы последние новинки кино, игр, сериалов и прочего у нас, на Rutor.in. Не нужно использовать прокси, чтобы зайти на рутор, достаточно воспользоваться нашим ресурсом. Все новые фильмы, игры, сериалы, книги и музыка за 2013 и 2014 годы через торрент бесплатно. Скачивайте фильмы в хорошем качестве, игры для пк, xbox, playstation без регистрации. У нас вы найдете новые Зарубежные сериалы и Русские сериалы 2013, 2014, 2015 годов. Оставайтесь с нами, качайте любимые фильмы, игры, сериалы, книги и музыку.
cron