img image001 image001 image001 image001 image001 image001 image001 image001 image001 image001 image001 image001 image001 image001 image001

Planets Sun Sun Sun
Статистика раздачи
Автор: Nickolas3434 | Размер: 1.29 ГБ | Добавлен: 17 мар 2014
Раздают: 79    Качают: 23
Скачать торрент
Скачать торрент
Описание торрента

СообщениеДобавлено: 17 мар 2014 

Кубок Мира 2013-14. 8-й этап. Контиолахти (Финляндия). Женщины. Гонка преследования 10 км
Вид спорта: Биатлон
Комментарий: Профессиональный
Язык комментариев: Русский (Дмитрий Губерниев)
Описание: Кубок Мира 2013-14. 8-й этап. Контиолахти (Финляндия). Женщины. Гонка преследования 10 км.
Присутствует цветочная церемония!


Автор рипа: sanchez2011
Качество: DVB
Формат: MPEG-PS
Видео кодек: MPEG2
Аудио кодек: MP2
Видео: MPEG2 Video 720x576 (16:9) 25.00fps 3000kbps
Аудио: MPEG Audio Layer 2 48000Hz stereo 192kbps

Результаты

Продолжительность: 00:57:24


General
Complete name : E:TorrentБиатлон. Сезон 2013-20148-й этап. Контиолахти (Финляндия)Кубок Мира 2013-14. 8-й этап. Контиолахти (Финляндия). Женщины. Гонка преследования 10 км.mpg
Format : MPEG-PS
File size : 1.29 GiB
Duration : 57mn 24s
Overall bit rate mode : Variable
Overall bit rate : 3 220 Kbps

Video
ID : 224 (0xE0)
Format : MPEG Video
Format version : Version 2
Format profile : Main@Main
Format settings, BVOP : Yes
Format settings, Matrix : Custom
Format settings, GOP : Variable
Duration : 57mn 24s
Bit rate mode : Variable
Bit rate : 2 964 Kbps
Maximum bit rate : 15.0 Mbps
Width : 720 pixels
Height : 576 pixels
Display aspect ratio : 16:9
Frame rate : 25.000 fps
Standard : PAL
Color space : YUV
Chroma subsampling : 4:2:0
Bit depth : 8 bits
Scan type : Interlaced
Scan order : Top Field First
Compression mode : Lossy
Bits/(Pixel*Frame) : 0.286
Time code of first frame : 00:00:00:00
Time code source : Group of pictures header
Stream size : 1.19 GiB (92%)

Audio
ID : 192 (0xC0)
Format : MPEG Audio
Format version : Version 1
Format profile : Layer 2
Duration : 57mn 24s
Bit rate mode : Constant
Bit rate : 192 Kbps
Channel(s) : 2 channels
Sampling rate : 48.0 KHz
Compression mode : Lossy
Delay relative to video : 20ms
Stream size : 78.8 MiB (6%)



   Похожие торренты   Торрент   Размер 
В этой теме нет новых непрочитанных сообщений. Биатлон. Кубок мира 2013/14. 8 этап. Гонка преследования 10 км. Женщины. Контиолахти (Финляндия) [Спорт 1 HD] [16.03] (2014) HDTVRip

152 | 117

705.3 МБ

В этой теме нет новых непрочитанных сообщений. Биатлон. Кубок мира 2013/14. 8 этап. Гонка преследования 10 км. Женщины. Контиолахти (Финляндия) [Спорт 1 HD] [16.03] (2014) IPTV 1080i

80 | 22

2.15 ГБ

В этой теме нет новых непрочитанных сообщений. Биатлон. Кубок мира 2013/14. 8 этап. Гонка преследования 12.5 км. Мужчины. Контиолахти (Финляндия) [Спорт 1 HD] [16.03] (2014) DVB

94 | 34

1023.07 МБ

В этой теме нет новых непрочитанных сообщений. Биатлон. Кубок мира 2013/14. 8 этап. Гонка преследования 12.5 км. Мужчины. Контиолахти (Финляндия) [Спорт 1 HD] [16.03] (2014) HDTVRip

128 | 32

583.7 МБ

В этой теме нет новых непрочитанных сообщений. Биатлон. Кубок мира 2013/14. 8 этап. Гонка преследования 10 км. Женщины. Контиолахти (Финляндия) [Евроспорт] [16.03] (2014) SATRip

62 | 18

445.34 МБ

В этой теме нет новых непрочитанных сообщений. Биатлон. Кубок мира 2013/14. 8 этап. Гонка преследования 12.5 км. Мужчины. Контиолахти (Финляндия) [Спорт 1 HD] [16.03] (2014) IPTV 1080i

57 | 8

1.77 ГБ

В этой теме нет новых непрочитанных сообщений. Биатлон. Кубок мира 2013/14. 8 этап. Гонка преследования 10 км. Женщины. Контиолахти (Финляндия) [Eurosport HD] [16.03] (2014) IPTV 1080i

16 | 9

1.42 ГБ




Вы не можете начинать темы
Вы не можете отвечать на сообщения
Вы не можете редактировать свои сообщения
Вы не можете удалять свои сообщения
Вы не можете добавлять вложения

Перейти:  
Для Мосгорсуда, Роскомнадзора и рекламодателей: mosgorsud-torrent[собачка]yandex.ru
 Вход
ppkBB3cker v.2 © 2008-2014 @ PPK
[ Time : 0.024s | 15 Queries | GZIP : Off ]

Торрент трекер RUTOR.IN, Не можете зайти на rutor.org? Какой новый адрес рутор? Какое зеркало рутор? Не работает rutor.org и зеркала? Тогда наш торрент специально для вас. Rutor.in неофициальное зеркало rutor. В случае если у Вас заблокирован rutor или вдруг Вы не можете на него зайти, то Вы без труда сможете скачать бесплатно и без рекламы последние новинки кино, игр, сериалов и прочего у нас, на Rutor.in. Не нужно использовать прокси, чтобы зайти на рутор, достаточно воспользоваться нашим ресурсом. Все новые фильмы, игры, сериалы, книги и музыка за 2013 и 2014 годы через торрент бесплатно. Скачивайте фильмы в хорошем качестве, игры для пк, xbox, playstation без регистрации. У нас вы найдете новые Зарубежные сериалы и Русские сериалы 2013, 2014, 2015 годов. Оставайтесь с нами, качайте любимые фильмы, игры, сериалы, книги и музыку.